<?xml version="1.0" standalone="no"?>
<!DOCTYPE svg PUBLIC "-//W3C//DTD SVG 1.1//EN" "http://www.w3.org/Graphics/SVG/1.1/DTD/svg11.dtd" >
<svg xmlns="http://www.w3.org/2000/svg" xmlns:xlink="http://www.w3.org/1999/xlink" version="1.1">
<metadata>
Created by FontForge 20201107 at Wed Apr  9 14:49:15 2025
 By 
Copyright 2022 The Figtree Project Authors (https://github.com/erikdkennedy/figtree)
</metadata>
<defs>
<font id="Figtree-SemiBold" horiz-adv-x="629" >
  <font-face 
    font-family="Figtree SemiBold"
    font-weight="600"
    font-stretch="normal"
    units-per-em="1000"
    panose-1="0 0 0 0 0 0 0 0 0 0"
    ascent="800"
    descent="-200"
    x-height="500"
    cap-height="700"
    bbox="-176 -220 1100 937"
    underline-thickness="50"
    underline-position="-125"
    unicode-range="U+000D-2265"
  />
<missing-glyph horiz-adv-x="708" 
d="M100 -170v960h508v-960h-508zM158 -112h392v844h-392v-844z" />
    <glyph glyph-name=".notdef" horiz-adv-x="708" 
d="M100 -170v960h508v-960h-508zM158 -112h392v844h-392v-844z" />
    <glyph glyph-name=".null" horiz-adv-x="0" 
 />
    <glyph glyph-name="nonmarkingreturn" horiz-adv-x="333" 
 />
    <glyph glyph-name="CR" unicode="&#xd;" horiz-adv-x="600" 
 />
    <glyph glyph-name="space" unicode=" " horiz-adv-x="241" 
 />
    <glyph glyph-name="exclam" unicode="!" horiz-adv-x="307" 
d="M99 218l-7 482h123l-7 -482h-109zM153 -15q-29 0 -49.5 21t-20.5 50t20.5 49.5t49.5 20.5t50 -20.5t21 -49.5t-21 -50t-50 -21z" />
    <glyph glyph-name="quotedbl" unicode="&#x22;" horiz-adv-x="376" 
d="M71 469l-11 247h107l-11 -247h-85zM219 469l-11 247h107l-11 -247h-85z" />
    <glyph glyph-name="numbersign" unicode="#" horiz-adv-x="630" 
d="M329 0l110 700h84l-110 -700h-84zM10 187l11 78h562l-11 -78h-562zM109 0l110 700h85l-110 -700h-85zM45 421l13 79h562l-13 -79h-562z" />
    <glyph glyph-name="dollar" unicode="$" horiz-adv-x="558" 
d="M287 23q-66 0 -117 20.5t-83 53.5t-43 71l104 32q12 -33 45.5 -57t83.5 -25q57 0 90.5 23.5t33.5 62.5q0 34 -28.5 57t-75.5 35l-77 19q-45 12 -80 35.5t-55 58t-20 81.5q0 88 57.5 137.5t164.5 49.5q61 0 106 -18.5t75 -51t44 -72.5l-103 -34q-13 34 -46 57.5t-81 23.5
q-50 0 -78.5 -23.5t-28.5 -64.5q0 -35 22.5 -54t59.5 -29l78 -19q85 -21 131.5 -72t46.5 -112q0 -54 -26.5 -95.5t-76.5 -65.5t-123 -24zM240 -103v883h96v-883h-96z" />
    <glyph glyph-name="percent" unicode="%" horiz-adv-x="802" 
d="M93 0l497 700h116l-500 -700h-113zM599 -16q-47 0 -83 22t-56.5 61t-20.5 88q0 50 20 88t56.5 60t83.5 22t83 -22t56.5 -60t20.5 -88q0 -49 -20.5 -88t-56.5 -61t-83 -22zM599 63q33 0 54 26t21 66q0 39 -21 65.5t-54 26.5t-54.5 -26.5t-21.5 -65.5q0 -40 21.5 -66
t54.5 -26zM203 375q-46 0 -82.5 22t-56.5 61t-20 88q0 50 20 88t56.5 60t83.5 22t83 -22t56 -60t20 -88q0 -49 -20 -88t-56.5 -61t-83.5 -22zM203 454q34 0 55 26t21 66q0 39 -21 65t-55 26q-33 0 -54 -26t-21 -65q0 -40 21 -66t54 -26z" />
    <glyph glyph-name="ampersand" unicode="&#x26;" horiz-adv-x="646" 
d="M256 -14q-61 0 -108 24t-74 66t-27 96q0 40 15.5 73.5t41.5 61.5t59 50l115 79q20 14 41 30t36.5 37t15.5 48q0 33 -23.5 52t-59.5 19q-32 0 -54.5 -20t-22.5 -50q0 -27 17 -48t40 -50l129 -155l247 -299h-133l-198 237l-132 160q-26 33 -44 58.5t-26.5 49t-8.5 48.5
q0 46 24.5 82.5t65.5 57.5t92 21q56 0 99.5 -21t68.5 -58t25 -86q0 -40 -21 -75t-59.5 -68t-90.5 -70l-72 -49q-19 -13 -35 -29t-26 -36t-10 -48q0 -40 27.5 -65.5t71.5 -25.5q46 0 88.5 15t76 43.5t52.5 69.5t19 93h107q0 -92 -45 -164t-123.5 -113t-180.5 -41z" />
    <glyph glyph-name="quotesingle" unicode="'" horiz-adv-x="227" 
d="M71 469l-11 247h107l-11 -247h-85z" />
    <glyph glyph-name="parenleft" unicode="(" horiz-adv-x="370" 
d="M217 -100q-46 61 -84 132.5t-60 151.5t-22 166q0 87 22 166.5t60 151t84 132.5h112q-46 -64 -84 -137t-60 -151.5t-22 -161.5q0 -82 22 -161t60 -151.5t84 -137.5h-112z" />
    <glyph glyph-name="parenright" unicode=")" horiz-adv-x="370" 
d="M153 -100h-112q47 65 84.5 137.5t59.5 151.5t22 161q0 83 -22 161.5t-59.5 151.5t-84.5 137h112q47 -61 84.5 -132.5t59.5 -151t22 -166.5q0 -86 -22 -166t-59.5 -151.5t-84.5 -132.5z" />
    <glyph glyph-name="asterisk" unicode="*" horiz-adv-x="485" 
d="M316 366l-96 153l50 37l116 -140zM171 363l-69 51l116 139l50 -36zM233 506l-176 45l27 82l168 -68zM212 535l-12 181h85l-12 -181h-61zM252 506l-19 59l169 66l26 -81z" />
    <glyph glyph-name="plus" unicode="+" 
d="M268 69v458h93v-458h-93zM85 251v93h459v-93h-459z" />
    <glyph glyph-name="comma" unicode="," horiz-adv-x="245" 
d="M33 -115l60 227h118l-90 -227h-88z" />
    <glyph glyph-name="hyphen" unicode="-" horiz-adv-x="411" 
d="M56 249v97h300v-97h-300z" />
    <glyph glyph-name="period" unicode="." horiz-adv-x="232" 
d="M116 -14q-29 0 -49.5 20.5t-20.5 49.5t20.5 50t49.5 21t50 -21t21 -50t-21 -49.5t-50 -20.5z" />
    <glyph glyph-name="slash" unicode="/" horiz-adv-x="415" 
d="M15 -84l276 831h109l-274 -831h-111z" />
    <glyph glyph-name="zero" unicode="0" horiz-adv-x="645" 
d="M322 -12q-82 0 -146 46.5t-100.5 128t-36.5 187.5t36.5 187.5t100 128t146.5 46.5t147 -46.5t100.5 -128t36.5 -187.5t-36.5 -187.5t-100 -128t-147.5 -46.5zM323 93q49 0 87.5 33t60 91t21.5 133t-21.5 133.5t-60 91.5t-88.5 33t-88 -33t-59.5 -91t-21.5 -134
q0 -75 21.5 -133t60 -91t88.5 -33z" />
    <glyph glyph-name="one" unicode="1" horiz-adv-x="419" 
d="M204 0v552q-36 -27 -74.5 -43t-77.5 -14v105q23 -1 52.5 13.5t59 38.5t51.5 48h101v-700h-112z" />
    <glyph glyph-name="two" unicode="2" horiz-adv-x="571" 
d="M54 0v89q0 31 16 64.5t45.5 67.5t69.5 64l122 88q23 16 42.5 37t31.5 44.5t12 46.5q0 29 -14.5 53t-41 38t-64.5 14q-34 0 -60.5 -13.5t-43.5 -35.5t-24 -48l-119 22q10 48 42.5 89.5t84 66.5t117.5 25q74 0 128.5 -27t84 -74.5t29.5 -108.5q0 -62 -33.5 -111.5
t-93.5 -94.5l-112 -83q-33 -24 -54 -51.5t-29 -58.5h331v-103h-467z" />
    <glyph glyph-name="three" unicode="3" horiz-adv-x="551" 
d="M276 -12q-57 0 -104 17t-79 48t-46 70l104 39q8 -14 22 -31t37 -29.5t59 -12.5q57 0 90.5 32.5t33.5 82.5q0 36 -18.5 62t-57 40t-96.5 14h-32v96h32q77 0 117 26t40 73q0 27 -13.5 48.5t-38.5 34.5t-59 13q-22 0 -43 -7t-39 -22t-30 -39l-101 37q15 42 48 71.5t77 45
t92 15.5q64 0 114.5 -24t80 -66.5t29.5 -97.5q0 -54 -30.5 -92.5t-81.5 -61.5q58 -27 92.5 -71.5t34.5 -106.5q0 -63 -32.5 -109t-85.5 -70.5t-116 -24.5z" />
    <glyph glyph-name="four" unicode="4" horiz-adv-x="628" 
d="M357 0v150h-324v92l313 458h122v-449h130v-101h-130v-150h-111zM156 251h201v295z" />
    <glyph glyph-name="five" unicode="5" horiz-adv-x="578" 
d="M292 -12q-46 0 -93.5 14.5t-87.5 44t-61 74.5l103 38q26 -37 61 -53.5t72 -16.5q59 0 96 35.5t37 94.5q0 57 -36 94t-94 37q-34 0 -63.5 -15t-45.5 -36l-105 23l39 378h387v-105h-287l-20 -190q27 16 60.5 25.5t70.5 9.5q60 0 108 -28t76 -76.5t28 -111.5
q0 -70 -31.5 -123t-86.5 -83t-127 -30z" />
    <glyph glyph-name="six" unicode="6" horiz-adv-x="574" 
d="M298 -12q-71 0 -120.5 26.5t-79.5 72t-44 106t-14 129.5q0 84 17.5 155t52.5 124t87.5 82t122.5 29q54 0 106.5 -16.5t93.5 -45.5l-60 -84q-31 22 -67.5 33t-67.5 11q-87 0 -134.5 -75t-43.5 -233l-24 18q23 57 73 91.5t119 34.5q67 0 119 -30.5t81 -83t29 -119.5
q0 -65 -30.5 -116t-86 -80t-129.5 -29zM299 87q37 0 66.5 17t46.5 46.5t17 67.5t-17 68t-46.5 46.5t-66.5 16.5q-38 0 -67.5 -16.5t-46.5 -46.5t-17 -68t17 -67.5t46.5 -46.5t67.5 -17z" />
    <glyph glyph-name="seven" unicode="7" horiz-adv-x="548" 
d="M89 0l301 594h-354v106h482v-89l-301 -611h-128z" />
    <glyph glyph-name="eight" unicode="8" horiz-adv-x="613" 
d="M306 -12q-81 0 -139 24.5t-89 68t-31 101.5q0 63 32.5 110t91.5 73q-47 23 -73.5 63.5t-26.5 93.5q0 56 28.5 99t81.5 67t125 24t125 -24t82 -67t29 -99q0 -53 -26.5 -93.5t-74.5 -63.5q59 -25 92 -73t33 -110q0 -58 -31.5 -101.5t-89.5 -68t-139 -24.5zM306 86
q62 0 102 31t40 79q0 51 -40 83t-102 32q-41 0 -73 -14.5t-50 -40.5t-18 -60q0 -32 18.5 -57t50 -39t72.5 -14zM306 408q53 0 87.5 28.5t34.5 72.5q0 48 -34.5 78t-87.5 30t-87 -30t-34 -78q0 -44 34 -72.5t87 -28.5z" />
    <glyph glyph-name="nine" unicode="9" horiz-adv-x="574" 
d="M276 712q72 0 121 -26.5t79.5 -72.5t44 -106t13.5 -129q0 -84 -17.5 -155.5t-52 -124t-87 -81.5t-123.5 -29q-54 0 -106 16t-94 46l60 84q31 -22 67.5 -33t67.5 -11q87 0 135 75t44 233l24 -18q-24 -57 -74 -91.5t-119 -34.5q-67 0 -118.5 30.5t-81 83t-29.5 118.5
t30.5 117t86 80t129.5 29zM275 612q-37 0 -66.5 -16.5t-46 -46t-16.5 -67.5t16.5 -68t46 -47t66.5 -17q39 0 68.5 17t46 47t16.5 68t-16.5 67.5t-46 46t-68.5 16.5z" />
    <glyph glyph-name="colon" unicode=":" horiz-adv-x="282" 
d="M141 360q-29 0 -50 21t-21 50t21 49.5t50 20.5q28 0 49 -20.5t21 -49.5t-21 -50t-49 -21zM142 -2q-29 0 -50 21t-21 50t21 49.5t50 20.5t49.5 -20.5t20.5 -49.5t-20.5 -50t-49.5 -21z" />
    <glyph glyph-name="semicolon" unicode=";" horiz-adv-x="287" 
d="M139 358q-29 0 -50 21t-21 50t21 49.5t50 20.5t49.5 -20.5t20.5 -49.5t-20.5 -50t-49.5 -21zM38 -115l59 227h118l-89 -227h-88z" />
    <glyph glyph-name="less" unicode="&#x3c;" 
d="M491 510v-103l-245 -109l245 -107v-104l-361 162v97z" />
    <glyph glyph-name="equal" unicode="=" 
d="M114 351v93h400v-93h-400zM114 151v93h400v-93h-400z" />
    <glyph glyph-name="greater" unicode="&#x3e;" 
d="M137 87v103l245 109l-245 107v103l361 -161v-98z" />
    <glyph glyph-name="question" unicode="?" horiz-adv-x="509" 
d="M168 196l-3 177l65 4q57 2 94 32.5t37 86.5q0 50 -34.5 82t-89.5 32q-39 0 -68 -19t-40 -47l-103 30q20 62 75.5 100t135.5 38q68 0 120.5 -27.5t82.5 -76t30 -112.5q0 -54 -24 -97t-67.5 -69t-100.5 -32l-2 -102h-108zM222 -14q-30 0 -50.5 20.5t-20.5 49.5
q0 30 20.5 50.5t50.5 20.5q29 0 49.5 -20.5t20.5 -50.5q0 -29 -20.5 -49.5t-49.5 -20.5z" />
    <glyph glyph-name="at" unicode="@" horiz-adv-x="991" 
d="M515 -211q-104 0 -191.5 34t-151 96t-98.5 147t-35 186q0 102 35 186.5t98.5 146.5t151 96t191.5 34q96 0 176 -34t138.5 -96t90 -146.5t31.5 -186.5q0 -78 -25.5 -138t-70.5 -94.5t-103 -34.5q-51 -1 -85 26.5t-41 87.5q-28 -39 -71 -61.5t-96 -22.5q-63 0 -111.5 30.5
t-75.5 84.5t-27 123q0 70 27 123t75.5 83.5t111.5 30.5q50 0 91.5 -20.5t68.5 -56.5l-1 66h98v-366q0 -25 12 -37t31 -12q31 0 54.5 24t36.5 66.5t13 97.5q0 83 -25.5 152t-72 120t-110 78.5t-140.5 27.5q-85 0 -156 -27.5t-123 -78t-80.5 -120t-28.5 -152.5t28.5 -152
t80.5 -119.5t123 -78.5t156 -28q37 0 79.5 10.5t71.5 26.5l46 -68q-42 -24 -97 -39t-100 -15zM490 110q53 0 89 33.5t42 87.5v46q-7 52 -44 85t-90 33q-40 0 -70 -18.5t-47.5 -50t-17.5 -73.5q0 -41 18 -74t49 -51t71 -18z" />
    <glyph glyph-name="A" unicode="A" horiz-adv-x="699" 
d="M9 0l279 700h123l280 -700h-123l-69 172h-299l-68 -172h-123zM239 275h221l-110 280z" />
    <glyph glyph-name="B" unicode="B" horiz-adv-x="612" 
d="M83 0v700h231q72 0 124.5 -22t81.5 -65.5t29 -108.5q0 -45 -21.5 -81t-60.5 -60q51 -25 78 -67t27 -100q0 -62 -28 -106t-79 -67t-121 -23h-261zM197 104h138q55 0 87 27t32 73q0 50 -35.5 78t-99.5 28h-122v-206zM197 406h127q50 0 78.5 26.5t28.5 73.5q0 48 -32.5 73.5
t-90.5 25.5h-111v-199z" />
    <glyph glyph-name="C" unicode="C" horiz-adv-x="723" 
d="M386 -12q-101 0 -179.5 46.5t-123 128t-44.5 187.5t44.5 187.5t122.5 128t179 46.5q68 0 128 -24.5t106.5 -67.5t71.5 -100l-106 -43q-18 38 -48.5 67.5t-69.5 45.5t-82 16q-66 0 -117.5 -33t-81 -90.5t-29.5 -132.5t29.5 -133t82 -91t119.5 -33q44 0 82.5 17.5t69 48.5
t48.5 72l106 -43q-25 -59 -71 -104.5t-107 -70.5t-130 -25z" />
    <glyph glyph-name="D" unicode="D" horiz-adv-x="695" 
d="M83 0v700h220q103 0 182.5 -44.5t125 -123.5t45.5 -182q0 -102 -45.5 -181t-125 -124t-182.5 -45h-220zM199 108h104q49 0 92 18.5t75 51.5t50 77t18 95t-18 95t-50 77t-75 51.5t-92 18.5h-104v-484z" />
    <glyph glyph-name="E" unicode="E" horiz-adv-x="590" 
d="M83 0v700h431v-106h-315v-186h278v-104h-278v-198h318v-106h-434z" />
    <glyph glyph-name="F" unicode="F" horiz-adv-x="550" 
d="M83 0v700h435v-106h-319v-196h273v-106h-273v-292h-116z" />
    <glyph glyph-name="G" unicode="G" horiz-adv-x="750" 
d="M404 -12q-106 0 -188.5 46.5t-129.5 128t-47 186.5q0 107 47 188.5t129.5 128t188.5 46.5q61 0 114.5 -19t96.5 -51.5t70 -75.5l-94 -60q-19 29 -49 52t-65.5 35.5t-72.5 12.5q-72 0 -127.5 -33t-87.5 -90.5t-32 -133.5q0 -74 31.5 -132t88 -91t130.5 -33q57 0 102 23
t71.5 64t28.5 94h-167v94h279v-78q-2 -93 -42.5 -161t-111.5 -104.5t-163 -36.5z" />
    <glyph glyph-name="H" unicode="H" horiz-adv-x="750" 
d="M83 0v700h116v-288h352v288h116v-700h-116v306h-352v-306h-116z" />
    <glyph glyph-name="I" unicode="I" horiz-adv-x="282" 
d="M83 0v700h116v-700h-116z" />
    <glyph glyph-name="J" unicode="J" horiz-adv-x="537" 
d="M218 -13q-46 0 -81.5 14t-61.5 37t-42.5 50t-24.5 53l95 41q18 -41 46.5 -65t69.5 -24q33 0 62.5 15.5t48.5 49.5t19 90v452h116v-489q0 -54 -19.5 -95.5t-53.5 -70.5t-79 -43.5t-95 -14.5z" />
    <glyph glyph-name="K" unicode="K" horiz-adv-x="644" 
d="M83 0v700h114v-295l279 295h149l-298 -315l310 -385h-143l-243 304l-54 -58v-246h-114z" />
    <glyph glyph-name="L" unicode="L" horiz-adv-x="530" 
d="M83 0v700h116v-594h317v-106h-433z" />
    <glyph glyph-name="M" unicode="M" horiz-adv-x="853" 
d="M83 0v700h124l220 -324l218 324h125v-700h-116v517l-228 -337l-227 335v-515h-116z" />
    <glyph glyph-name="N" unicode="N" horiz-adv-x="774" 
d="M83 0v700h120l372 -506v506h116v-700h-116l-376 512v-512h-116z" />
    <glyph glyph-name="O" unicode="O" horiz-adv-x="783" 
d="M394 -12q-104 0 -184 46t-125.5 128t-45.5 188t45.5 187.5t124.5 128t182 46.5q104 0 183.5 -46.5t124 -128t44.5 -187.5t-44.5 -188t-123 -128t-181.5 -46zM394 94q68 0 120 33t81.5 90.5t29.5 132.5q0 74 -30 132t-82.5 90.5t-121.5 32.5q-68 0 -120.5 -32.5t-83 -90
t-30.5 -132.5t30.5 -132.5t84 -90.5t122.5 -33z" />
    <glyph glyph-name="P" unicode="P" horiz-adv-x="594" 
d="M83 0v700h247q72 0 127 -29t86 -80.5t31 -119.5q0 -66 -29 -118t-80.5 -81.5t-119.5 -29.5h-146v-242h-116zM199 349h144q50 0 82 34t32 88q0 55 -36 89t-93 34h-129v-245z" />
    <glyph glyph-name="Q" unicode="Q" horiz-adv-x="785" 
d="M666 -41l-82 83q-39 -26 -87.5 -40t-102.5 -14q-104 0 -184 46t-125.5 128t-45.5 188q0 80 26 146t73 114.5t111.5 75t141.5 26.5q104 0 183.5 -46.5t124 -128t44.5 -187.5q0 -72 -21 -133.5t-59 -107.5l76 -77zM394 94q31 0 57.5 8.5t49.5 23.5l-90 91l75 72l94 -96
q22 32 33.5 71t11.5 86q0 75 -30 132.5t-82.5 90.5t-121.5 33q-68 0 -120.5 -33t-83 -90.5t-30.5 -132.5t30.5 -132.5t84 -90.5t122.5 -33z" />
    <glyph glyph-name="R" unicode="R" horiz-adv-x="637" 
d="M83 0v700h247q72 0 127 -28t86 -77.5t31 -114.5q0 -69 -38 -121.5t-100 -77.5l166 -281h-131l-150 259q-6 -1 -12.5 -1h-13.5h-96v-258h-116zM199 365h136q34 0 60.5 15t43 41t16.5 59q0 50 -36 82t-93 32h-127v-229z" />
    <glyph glyph-name="S" unicode="S" horiz-adv-x="610" 
d="M313 -12q-55 0 -100.5 13t-80 36t-57 51.5t-31.5 59.5l114 35q13 -37 51 -65t94 -29q65 0 103 27t38 71q0 40 -32 65.5t-86 39.5l-86 22q-49 13 -88.5 38t-62 63t-22.5 90q0 98 64 152.5t183 54.5q67 0 117.5 -20.5t83.5 -56t49 -80.5l-112 -36q-15 40 -52 66t-92 26
q-57 0 -89.5 -27t-32.5 -75q0 -39 25.5 -60.5t69.5 -32.5l86 -21q94 -23 146 -79t52 -124q0 -60 -29 -106t-85.5 -72t-137.5 -26z" />
    <glyph glyph-name="T" unicode="T" horiz-adv-x="572" 
d="M228 0v594h-215v106h546v-106h-215v-594h-116z" />
    <glyph glyph-name="U" unicode="U" horiz-adv-x="705" 
d="M350 -14q-83 0 -145.5 33.5t-97 94.5t-34.5 142v444h116v-444q0 -49 20.5 -85.5t57.5 -57t85 -20.5q49 0 86.5 20.5t57.5 57t20 85.5v444h116v-444q0 -81 -34.5 -142t-98 -94.5t-149.5 -33.5z" />
    <glyph glyph-name="V" unicode="V" horiz-adv-x="711" 
d="M292 0l-283 700h123l223 -564l223 564h124l-283 -700h-127z" />
    <glyph glyph-name="W" unicode="W" horiz-adv-x="975" 
d="M218 0l-209 700h117l155 -522l149 522h115l148 -517l155 517h118l-212 -700h-123l-144 516l-146 -516h-123z" />
    <glyph glyph-name="X" unicode="X" horiz-adv-x="653" 
d="M10 0l252 357l-249 343h139l175 -250l175 250h138l-248 -343l251 -357h-140l-176 262l-177 -262h-140z" />
    <glyph glyph-name="Y" unicode="Y" horiz-adv-x="630" 
d="M257 0v294l-249 406h133l174 -289l174 289h133l-249 -405v-295h-116z" />
    <glyph glyph-name="Z" unicode="Z" horiz-adv-x="635" 
d="M41 0v108l404 484h-401v108h550v-108l-404 -484h401v-108h-550z" />
    <glyph glyph-name="bracketleft" unicode="[" horiz-adv-x="336" 
d="M83 -100v900h190v-102h-89v-696h89v-102h-190z" />
    <glyph glyph-name="backslash" unicode="\" horiz-adv-x="415" 
d="M400 -84h-111l-274 831h109z" />
    <glyph glyph-name="bracketright" unicode="]" horiz-adv-x="336" 
d="M253 -100h-190v102h89v696h-89v102h190v-900z" />
    <glyph glyph-name="asciicircum" unicode="^" horiz-adv-x="569" 
d="M393 373l-162 327h105l157 -327h-100zM76 373l155 327h104l-158 -327h-101z" />
    <glyph glyph-name="underscore" unicode="_" horiz-adv-x="436" 
d="M18 -97v97h400v-97h-400z" />
    <glyph glyph-name="grave" unicode="`" horiz-adv-x="247" 
d="M130 565l-130 136h130l117 -136h-117z" />
    <glyph glyph-name="a" unicode="a" horiz-adv-x="524" 
d="M223 -12q-90 0 -139.5 40t-49.5 113q0 78 52.5 119t146.5 41h127q-6 55 -31 84t-74 29q-36 0 -63 -15t-46 -47l-98 36q16 33 42.5 61.5t67 45.5t97.5 17q73 0 122 -28.5t72.5 -81.5t23.5 -128l-3 -274h-103l-3 61q-20 -35 -55.5 -54t-85.5 -19zM237 82q37 0 65.5 16.5
t44 44.5t15.5 62v10h-93q-67 0 -94 -18.5t-27 -52.5q0 -29 23.5 -45.5t65.5 -16.5z" />
    <glyph glyph-name="b" unicode="b" horiz-adv-x="592" 
d="M332 -12q-53 0 -93 23t-67 65l-4 -76h-106v700h112v-274q26 41 66 63.5t92 22.5q68 0 118.5 -32.5t79 -91t28.5 -138.5q0 -79 -28.5 -138t-79 -91.5t-118.5 -32.5zM304 90q40 0 71 20.5t49.5 56.5t18.5 83t-17.5 83t-48.5 56t-72 20q-38 0 -68 -20t-46.5 -56t-16.5 -83
t16.5 -83t46 -56.5t67.5 -20.5z" />
    <glyph glyph-name="c" unicode="c" horiz-adv-x="544" 
d="M296 -12q-77 0 -136 33.5t-92.5 92.5t-33.5 136t33.5 136t92 92.5t134.5 33.5q74 0 134 -35.5t89 -101.5l-104 -40q-16 33 -49 53t-75 20q-41 0 -73 -20.5t-50 -56t-18 -81.5t18.5 -81.5t51 -56t73.5 -20.5q42 0 75 21.5t49 58.5l104 -40q-29 -68 -88.5 -106t-134.5 -38z
" />
    <glyph glyph-name="d" unicode="d" horiz-adv-x="591" 
d="M260 -12q-68 0 -118.5 32.5t-79 91.5t-28.5 138q0 80 28.5 138.5t79 91t118.5 32.5q52 0 92 -22.5t66 -63.5v274h111v-700h-106l-4 76q-25 -42 -65.5 -65t-93.5 -23zM288 90q37 0 66 19.5t45.5 54t18.5 79.5v14q-2 45 -18.5 79.5t-45.5 53.5t-67 19q-40 0 -71.5 -20
t-49 -56t-17.5 -83t18 -83t49.5 -56.5t71.5 -20.5z" />
    <glyph glyph-name="e" unicode="e" horiz-adv-x="551" 
d="M285 -12q-73 0 -129.5 33.5t-89 92.5t-32.5 136t33 136t90.5 92.5t131.5 33.5q67 0 121 -34.5t85.5 -99.5t31.5 -155h-377q5 -63 46.5 -99t98.5 -36q46 0 76 20.5t47 53.5l99 -42q-21 -40 -53.5 -70t-77 -46t-101.5 -16zM157 309h249q-3 36 -21 59.5t-44 35.5t-55 12
q-28 0 -56.5 -11.5t-48.5 -35.5t-24 -60z" />
    <glyph glyph-name="f" unicode="f" horiz-adv-x="384" 
d="M112 0v408h-86v92h86v53q0 79 39.5 121.5t119.5 42.5q26 0 55.5 -8.5t56.5 -22.5l-41 -83q-19 9 -33.5 13t-25.5 4q-30 0 -44.5 -19.5t-14.5 -63.5v-37h131v-92h-131v-408h-112z" />
    <glyph glyph-name="g" unicode="g" horiz-adv-x="596" 
d="M277 -213q-53 0 -95.5 9t-71.5 21t-45 23l43 90q14 -7 37.5 -17.5t55.5 -18.5t72 -8q43 0 77 17.5t53 53.5t19 92v50q-26 -42 -67.5 -65.5t-94.5 -23.5q-68 0 -118.5 31t-79 86.5t-28.5 128.5q0 78 28.5 135t79 89t118.5 32q53 0 94.5 -24t67.5 -69v81h112v-448
q0 -85 -32 -144.5t-90 -90t-135 -30.5zM291 105q38 0 66.5 20t44.5 54.5t16 79.5q0 46 -16 80.5t-45 54t-67 19.5q-40 0 -70.5 -19.5t-48 -54t-17.5 -80.5q0 -45 17.5 -79.5t48.5 -54.5t71 -20z" />
    <glyph glyph-name="h" unicode="h" horiz-adv-x="565" 
d="M63 0v700h112v-268q25 39 63 59.5t86 20.5q59 0 102 -24t65.5 -74.5t22.5 -131.5v-282h-112v256q0 60 -14 92.5t-38.5 45.5t-56.5 13q-57 1 -87.5 -37t-30.5 -109v-261h-112z" />
    <glyph glyph-name="i" unicode="i" horiz-adv-x="250" 
d="M69 0v500h111v-500h-111zM125 595q-27 0 -46.5 19.5t-19.5 46.5t19.5 46t46.5 19t46.5 -19t19.5 -46t-19.5 -46.5t-46.5 -19.5z" />
    <glyph glyph-name="j" unicode="j" horiz-adv-x="282" 
d="M156 593q-28 0 -47.5 20t-19.5 47q0 28 19.5 47.5t47.5 19.5q27 0 47 -19.5t20 -47.5q0 -27 -20 -47t-47 -20zM45 -215q-49 0 -104 29l45 93q18 -9 33 -13.5t25 -4.5q56 0 56 72v539h111v-545q0 -82 -42.5 -126t-123.5 -44z" />
    <glyph glyph-name="k" unicode="k" horiz-adv-x="517" 
d="M62 0v700h112v-402l187 202h135l-188 -207l205 -293h-133l-144 213l-62 -68v-145h-112z" />
    <glyph glyph-name="l" unicode="l" horiz-adv-x="236" 
d="M62 0v700h112v-700h-112z" />
    <glyph glyph-name="m" unicode="m" horiz-adv-x="864" 
d="M62 0v500h105l5 -67q23 39 59 59t82 20q60 0 102 -27t61 -82q22 53 62 81t94 28q87 0 134 -55.5t46 -170.5v-286h-111v256q0 60 -13 92.5t-35 45.5t-51 13q-52 1 -80.5 -37t-28.5 -109v-261h-112v256q0 60 -12.5 92.5t-34.5 45.5t-51 13q-52 1 -80.5 -37t-28.5 -109v-261
h-112z" />
    <glyph glyph-name="n" unicode="n" horiz-adv-x="564" 
d="M62 0v500h105l5 -71q24 40 62.5 61.5t88.5 21.5q60 0 102.5 -24t65 -74.5t22.5 -131.5v-282h-112v256q0 60 -13.5 92.5t-38 45.5t-57.5 13q-56 1 -87 -37t-31 -109v-261h-112z" />
    <glyph glyph-name="o" unicode="o" horiz-adv-x="581" 
d="M292 -12q-75 0 -133.5 33.5t-91.5 92.5t-33 136t32.5 136t90.5 92.5t133 33.5t133 -33.5t90.5 -92.5t32.5 -136t-32 -136t-90 -92.5t-132 -33.5zM292 91q41 0 73 20.5t50 56t18 82.5t-18.5 82.5t-50.5 56t-74 20.5t-74 -20t-50 -56t-18 -83t18.5 -82.5t51 -56t74.5 -20.5
z" />
    <glyph glyph-name="p" unicode="p" horiz-adv-x="597" 
d="M67 -200v700h105l5 -76q26 42 66.5 65t93.5 23q68 0 118.5 -32.5t79 -91t28.5 -138.5q0 -79 -28.5 -138t-79 -91.5t-118.5 -32.5q-52 0 -92 23t-66 63v-274h-112zM309 90q40 0 71 20.5t49.5 56.5t18.5 83t-17.5 83t-48.5 56t-72 20q-38 0 -68 -20t-46.5 -56t-16.5 -83
t16.5 -83t46 -56.5t67.5 -20.5z" />
    <glyph glyph-name="q" unicode="q" horiz-adv-x="586" 
d="M418 -200v274q-25 -40 -65.5 -63t-92.5 -23q-68 0 -118.5 32.5t-79 91.5t-28.5 138q0 80 28.5 138.5t79 91t118.5 32.5q53 0 93.5 -23.5t66.5 -65.5l4 77h106v-700h-112zM288 90q38 0 67.5 20.5t46 56.5t16.5 83t-16.5 83t-46 56t-68.5 20q-40 0 -71 -20t-48.5 -56
t-18.5 -83q1 -47 18.5 -83t49 -56.5t71.5 -20.5z" />
    <glyph glyph-name="r" unicode="r" horiz-adv-x="363" 
d="M62 0v500h112v-91q30 47 78 70t99 23v-107q-46 0 -86.5 -12.5t-65.5 -40.5t-25 -74v-268h-112z" />
    <glyph glyph-name="s" unicode="s" horiz-adv-x="466" 
d="M244 -12q-50 0 -92 15t-72 42.5t-46 64.5l97 43q15 -28 44.5 -47t65.5 -19q39 0 62.5 13.5t23.5 37.5q0 23 -18 35.5t-51 20.5l-47 13q-71 18 -111 57.5t-40 90.5q0 75 48.5 116t139.5 41q46 0 84.5 -13.5t66.5 -38t39 -57.5l-93 -42q-10 25 -38 38.5t-62 13.5t-53 -14.5
t-19 -40.5q0 -15 17 -27.5t49 -20.5l59 -14q49 -12 80 -37.5t46 -57t15 -63.5q0 -45 -25.5 -79t-69.5 -52.5t-100 -18.5z" />
    <glyph glyph-name="t" unicode="t" horiz-adv-x="393" 
d="M261 -12q-79 0 -120.5 39.5t-41.5 113.5v263h-83v96h83v156h111v-156h135v-96h-135v-242q0 -35 16.5 -53t48.5 -18q10 0 22 4t27 15l41 -85q-26 -18 -52 -27.5t-52 -9.5z" />
    <glyph glyph-name="u" unicode="u" horiz-adv-x="564" 
d="M241 -12q-59 0 -101.5 24t-65.5 75t-23 131v282h112v-256q0 -59 14 -92t38.5 -46t56.5 -13q57 -1 88 37t31 109v261h111v-500h-105l-5 71q-24 -40 -62.5 -61.5t-88.5 -21.5z" />
    <glyph glyph-name="v" unicode="v" horiz-adv-x="542" 
d="M215 0l-207 500h115l148 -372l147 372h116l-206 -500h-113z" />
    <glyph glyph-name="w" unicode="w" horiz-adv-x="815" 
d="M180 0l-170 500h113l115 -348l115 348h110l114 -343l115 343h113l-170 -500h-111l-116 359l-117 -359h-111z" />
    <glyph glyph-name="x" unicode="x" horiz-adv-x="512" 
d="M10 0l186 259l-173 241h132l102 -150l101 150h132l-171 -242l183 -258h-133l-112 168l-113 -168h-134z" />
    <glyph glyph-name="y" unicode="y" horiz-adv-x="556" 
d="M141 -212q-24 0 -53.5 9t-56.5 23l42 91q19 -9 35 -14.5t26 -5.5q24 0 40.5 12.5t26.5 36.5l27 64l-222 496h122l152 -368l149 368h122l-232 -553q-21 -48 -42.5 -84t-53.5 -55.5t-82 -19.5z" />
    <glyph glyph-name="z" unicode="z" horiz-adv-x="483" 
d="M37 0v83l266 323h-266v94h407v-82l-266 -325h268v-93h-409z" />
    <glyph glyph-name="braceleft" unicode="{" horiz-adv-x="391" 
d="M56 339v53q38 0 58.5 10t28.5 36t8 74q0 86 8.5 142t28.5 88t55.5 45t91.5 13v-92q-33 -1 -51 -17.5t-25 -58.5t-7 -119q0 -69 -16 -107t-58.5 -52.5t-121.5 -14.5zM335 -100q-55 0 -91 13t-56 45t-28.5 88t-8.5 142q0 48 -8 74t-28.5 36t-58.5 10v53q79 0 121.5 -14.5
t59 -52t16.5 -107.5q0 -76 7 -118.5t24.5 -59t50.5 -17.5v-92z" />
    <glyph glyph-name="bar" unicode="|" horiz-adv-x="257" 
d="M83 -220v1010h91v-1010h-91z" />
    <glyph glyph-name="braceright" unicode="}" horiz-adv-x="391" 
d="M335 339q-78 0 -121 14.5t-59.5 52.5t-16.5 107q0 77 -6.5 119t-24.5 58.5t-51 17.5v92q55 0 90.5 -13t56 -45t28.5 -88t8 -142q0 -48 8 -74t29 -36t59 -10v-53zM56 -100v92q33 1 50.5 17.5t24.5 58.5t7 119q0 70 16 107.5t59.5 52t121.5 14.5v-53q-38 0 -59 -10t-29 -36
t-8 -74q0 -86 -8 -142t-28.5 -88t-56 -45t-90.5 -13z" />
    <glyph glyph-name="asciitilde" unicode="~" horiz-adv-x="628" 
d="M419 197q-33 0 -59 11t-45 28t-34 37q-19 24 -35 39.5t-36 15.5q-28 0 -43 -19.5t-20 -52.5h-91q1 51 21 91.5t54 64.5t77 24q48 0 84 -18.5t60 -58.5q12 -17 29.5 -35.5t37.5 -18.5q26 0 41.5 19t20.5 53h91q-2 -51 -22 -91.5t-53.5 -64.5t-77.5 -24z" />
    <glyph glyph-name="uni00A0" unicode="&#xa0;" horiz-adv-x="241" 
 />
    <glyph glyph-name="exclamdown" unicode="&#xa1;" horiz-adv-x="298" 
d="M208 279l7 -482h-123l7 482h109zM153 512q29 0 50 -21t21 -50q0 -28 -21 -49t-50 -21t-49.5 21t-20.5 49q0 29 20.5 50t49.5 21z" />
    <glyph glyph-name="cent" unicode="&#xa2;" horiz-adv-x="539" 
d="M255 0v700h67v-700h-67zM296 98q-77 0 -136 33.5t-92.5 92.5t-33.5 136t33.5 136t92 92.5t134.5 33.5q74 0 134 -35.5t89 -101.5l-104 -40q-16 33 -49 53t-75 20q-41 0 -73 -20.5t-50 -56t-18 -81.5t18.5 -81.5t51 -56t73.5 -20.5q42 0 75 21.5t49 58.5l104 -40
q-29 -68 -88.5 -106t-134.5 -38z" />
    <glyph glyph-name="sterling" unicode="&#xa3;" horiz-adv-x="588" 
d="M46 0v106h22q21 0 36 18t15 43v116h-73v94h73v124q0 67 27 114.5t76 72t113 24.5q62 0 109.5 -24t75 -70t27.5 -115l-114 11q0 46 -28 73t-71 27q-45 0 -73 -31t-28 -82v-124h202v-94h-202v-103q0 -41 -22 -74h336v-106h-501z" />
    <glyph glyph-name="currency" unicode="&#xa4;" horiz-adv-x="581" 
d="M293 164q-54 0 -97 25t-68 67t-25 94q0 51 25 92.5t68 66t96 24.5q55 0 97.5 -24.5t67.5 -66t25 -92.5q0 -52 -24.5 -94t-67.5 -67t-97 -25zM136 131l-64 64l102 103l67 -62zM293 259q39 0 62.5 25t23.5 66q0 40 -24 64t-63 24q-38 0 -62 -24t-24 -64q0 -41 24 -66
t63 -25zM180 399l-109 106l64 65l110 -108zM445 131l-97 98l65 63l97 -97zM406 406l-67 63l106 101l65 -65z" />
    <glyph glyph-name="yen" unicode="&#xa5;" horiz-adv-x="575" 
d="M343 292l-103 32l197 383h130zM230 0v336h116v-336h-116zM88 181v69h398v-69h-398zM88 291v69h398v-69h-398zM232 292l-224 415h131l196 -383z" />
    <glyph glyph-name="brokenbar" unicode="&#xa6;" horiz-adv-x="291" 
d="M100 350v440h91v-440h-91zM100 -220v440h91v-440h-91z" />
    <glyph glyph-name="section" unicode="&#xa7;" horiz-adv-x="542" 
d="M277 -90q-56 0 -100 17t-71.5 45.5t-35.5 60.5l89 29q11 -30 40 -50.5t71 -21.5q48 0 76.5 20t28.5 54q0 29 -24 48.5t-64 29.5l-67 17q-58 15 -96 52t-38 96q0 75 50 117t141 42q51 0 88 -16t61.5 -43.5t36.5 -62.5l-82 -27q-11 30 -42.5 49.5t-69.5 19.5
q-41 0 -64.5 -20.5t-23.5 -55.5q0 -29 19.5 -45t51.5 -25l68 -17q72 -18 111 -61t39 -95q0 -69 -49.5 -113t-143.5 -44zM276 155q-50 0 -89.5 18.5t-64 47.5t-31.5 62l67 24q7 -18 25.5 -34t43 -25.5t48.5 -9.5q45 0 72 19.5t27 51.5q0 30 -24 49t-65 29l-67 18
q-57 15 -95 51.5t-38 96.5q0 75 50 117t141 42q52 0 90.5 -15.5t64 -43t38.5 -61.5l-89 -29q-11 30 -38.5 49t-69.5 19q-44 0 -68.5 -20t-24.5 -56q0 -28 20 -44.5t52 -24.5l68 -17q72 -17 111 -60.5t39 -96.5q0 -69 -49.5 -113t-143.5 -44z" />
    <glyph glyph-name="dieresis" unicode="&#xa8;" horiz-adv-x="467" 
d="M360 604q-24 0 -42 18t-18 42q0 25 18 43t42 18q25 0 43 -18t18 -43q0 -24 -18 -42t-43 -18zM106 604q-24 0 -42 18t-18 42q0 26 18 43.5t42 17.5q25 0 43 -17.5t18 -43.5q0 -24 -18 -42t-43 -18z" />
    <glyph glyph-name="copyright" unicode="&#xa9;" horiz-adv-x="802" 
d="M401 -11q-76 0 -142 27.5t-115.5 76.5t-77 114.5t-27.5 142.5t27.5 143t77 115t115.5 76.5t142 27.5q77 0 142.5 -27.5t115 -76.5t76.5 -115t27 -143t-27 -142.5t-76.5 -114.5t-115 -76.5t-142.5 -27.5zM401 152q-56 0 -98 24.5t-65 69t-23 104.5t23 104.5t64.5 69
t97.5 24.5q48 0 91 -25.5t66 -68.5l13 -26l-74 -28l-12 20q-13 21 -36.5 34.5t-47.5 13.5q-46 0 -74 -32.5t-28 -85.5q0 -52 28.5 -85t74.5 -33q25 0 48.5 16t38.5 41l8 16l77 -27l-12 -23q-23 -47 -67 -75t-93 -28zM401 68q81 0 143.5 36t98 100t35.5 146q0 83 -36 147
t-98 100t-143 36q-80 0 -142.5 -36t-98.5 -100t-36 -147q0 -82 36 -146t98.5 -100t142.5 -36z" />
    <glyph glyph-name="ordfeminine" unicode="&#xaa;" horiz-adv-x="335" 
d="M219 400l-3 151q-1 27 -5.5 46t-17 29.5t-38.5 10.5q-19 0 -31 -7.5t-23 -22.5l-76 25q21 36 53.5 55.5t77.5 19.5q69 0 106 -37.5t37 -103.5v-166h-80zM135 393q-53 0 -82 24t-29 68q0 45 29.5 68.5t81.5 23.5h95v-53h-65q-56 0 -56 -38q0 -14 11.5 -22.5t31.5 -8.5
q28 0 45 18t17 48l31 7q0 -63 -29 -99t-81 -36z" />
    <glyph glyph-name="guillemotleft" unicode="&#xab;" horiz-adv-x="600" 
d="M416 96l-150 202l150 202h130l-147 -202l147 -202h-130zM198 96l-150 202l150 202h130l-147 -202l147 -202h-130z" />
    <glyph glyph-name="logicalnot" unicode="&#xac;" 
d="M130 284v95h364v-95h-364zM400 173v206h94v-206h-94z" />
    <glyph glyph-name="registered" unicode="&#xae;" horiz-adv-x="618" 
d="M309 162q-57 0 -107 21.5t-87.5 59t-59 87.5t-21.5 107t21.5 107t59 87.5t87.5 59t107 21.5t107 -21.5t87.5 -59t59 -87.5t21.5 -107t-21.5 -107t-59 -87.5t-87.5 -59t-107 -21.5zM309 225q63 0 110 26.5t74 75t27 110.5q0 64 -27 111.5t-74 74.5t-110 27
q-62 0 -109.5 -27t-74 -74.5t-26.5 -111.5q0 -62 26.5 -110.5t74 -75t109.5 -26.5zM205 297v292h110q47 0 76.5 -26.5t29.5 -68.5q0 -28 -15 -50.5t-40 -34.5l67 -112h-68l-58 101h-42v-101h-60zM265 454h50q19 0 31.5 11t12.5 29t-13 29t-33 11h-48v-80z" />
    <glyph glyph-name="macron" unicode="&#xaf;" horiz-adv-x="300" 
d="M-9 567v97h318v-97h-318z" />
    <glyph glyph-name="degree" unicode="&#xb0;" horiz-adv-x="374" 
d="M187 430q-40 0 -73 19.5t-53 52.5t-20 73q0 39 20 71t53.5 50.5t72.5 18.5t72.5 -18.5t53.5 -50.5t20 -71q0 -40 -20 -73t-53.5 -52.5t-72.5 -19.5zM187 508q25 0 42.5 20t17.5 47q0 26 -17.5 44t-42.5 18q-24 0 -42 -18.5t-18 -43.5q0 -27 18 -47t42 -20z" />
    <glyph glyph-name="plusminus" unicode="&#xb1;" 
d="M85 320v88h459v-88h-459zM85 13v81h459v-81h-459zM268 156v417h93v-417h-93z" />
    <glyph glyph-name="uni00B2" unicode="&#xb2;" horiz-adv-x="365" 
d="M121 432l-87 12q0 18 11.5 38.5t31.5 42.5t46 40l59 41q18 13 35 31.5t17 37.5q0 22 -16 36.5t-46 14.5q-25 0 -41 -14.5t-22 -34.5l-91 15q6 31 26.5 57t53 42t73.5 16q71 0 112 -36.5t41 -94.5q0 -41 -22 -70.5t-60 -56.5l-57 -41q-14 -10 -28 -24t-24 -27.5t-12 -24.5
zM34 380v64l66 14h229v-78h-295z" />
    <glyph glyph-name="uni00B3" unicode="&#xb3;" horiz-adv-x="354" 
d="M182 373q-58 0 -98.5 26t-50.5 71l83 22q7 -15 20 -29t40 -14q28 0 44 15.5t16 40.5q0 15 -7.5 28t-25.5 20.5t-50 7.5h-28v58h25q47 0 87 -15t64 -43t24 -67t-20 -65.5t-52.5 -41t-70.5 -14.5zM125 578v55h28q39 0 57.5 13t18.5 37q0 20 -14.5 34t-38.5 14
q-18 0 -34 -9.5t-24 -32.5l-82 21q8 32 29.5 53.5t51 32.5t61.5 11q40 0 71.5 -14.5t50 -40.5t18.5 -60q0 -38 -24.5 -63.5t-63 -38t-80.5 -12.5h-25z" />
    <glyph glyph-name="acute" unicode="&#xb4;" horiz-adv-x="247" 
d="M1 565l116 135h130l-129 -135h-117z" />
    <glyph glyph-name="uni00B5" unicode="&#xb5;" horiz-adv-x="564" 
d="M268 -12q-72 0 -115 56t-42 170l52 30q0 -59 14 -92t38.5 -46t56.5 -13q57 -1 88 37t31 109h42q0 -119 -42 -185t-123 -66zM51 -200v700h112v-415l-9 -1v-284h-103zM397 0l-6 92v408h111v-500h-105z" />
    <glyph glyph-name="paragraph" unicode="&#xb6;" horiz-adv-x="570" 
d="M248 242q-67 0 -118.5 29.5t-81 81.5t-29.5 118q0 68 29.5 119.5t81 80.5t118.5 29h51v-458h-51zM265 -84v784h87v-784h-87zM400 -84v784h87v-784h-87zM348 594v106h63v-106h-63z" />
    <glyph glyph-name="periodcentered" unicode="&#xb7;" horiz-adv-x="258" 
d="M129 263q-29 0 -49.5 20.5t-20.5 49.5t20.5 50t49.5 21t50 -21t21 -50t-21 -49.5t-50 -20.5z" />
    <glyph glyph-name="cedilla" unicode="&#xb8;" horiz-adv-x="227" 
d="M105 -210q-21 0 -44.5 6t-50.5 22l19 57q16 -7 31.5 -13t27.5 -6q18 0 31 6.5t13 24.5q0 22 -17 32.5t-52 14.5l29 72l68 -8l-13 -28q36 -13 52.5 -35.5t16.5 -49.5q0 -42 -27.5 -68.5t-83.5 -26.5z" />
    <glyph glyph-name="uni00B9" unicode="&#xb9;" horiz-adv-x="281" 
d="M124 380v373l9 47h76v-420h-85zM36 662v80q22 -1 48.5 16.5t48.5 41.5l56 -54q-38 -42 -75 -64.5t-78 -19.5z" />
    <glyph glyph-name="ordmasculine" unicode="&#xba;" horiz-adv-x="363" 
d="M183 393q-47 0 -83 20t-56 55.5t-20 81.5t20 81.5t56 55.5t81 20q70 0 114 -44t44 -113q0 -46 -20 -81.5t-55.5 -55.5t-80.5 -20zM183 472q30 0 49.5 22t19.5 56t-20 56t-51 22q-30 0 -49.5 -22t-19.5 -56t20 -56t51 -22z" />
    <glyph glyph-name="guillemotright" unicode="&#xbb;" horiz-adv-x="600" 
d="M183 96h-129l146 202l-146 202h129l151 -202zM402 96h-130l147 202l-147 202h130l150 -202z" />
    <glyph glyph-name="onequarter" unicode="&#xbc;" horiz-adv-x="834" 
d="M124 280v373l9 47h76v-420h-85zM36 562v80q22 -1 48.5 16.5t48.5 41.5l56 -54q-38 -42 -75 -64.5t-78 -19.5zM105 0l481 700h92l-481 -700h-92zM527 116l-64 34l185 270l52 -49zM463 78v72l49 4h301v-76h-350zM658 0v372l-10 48h94v-420h-84z" />
    <glyph glyph-name="onehalf" unicode="&#xbd;" horiz-adv-x="866" 
d="M124 280v373l9 47h76v-420h-85zM36 562v80q22 -1 48.5 16.5t48.5 41.5l56 -54q-38 -42 -75 -64.5t-78 -19.5zM105 0l481 700h92l-481 -700h-92zM622 52l-87 12q0 18 11.5 38.5t31.5 42.5t46 40l59 41q18 13 35 31.5t17 37.5q0 22 -16 36.5t-46 14.5q-25 0 -41 -14.5
t-22 -34.5l-91 15q6 31 26.5 57t53 42t73.5 16q71 0 112 -36.5t41 -94.5q0 -41 -22 -70.5t-60 -56.5l-57 -41q-14 -10 -28 -24t-24 -27.5t-12 -24.5zM535 0v64l66 14h229v-78h-295z" />
    <glyph glyph-name="threequarters" unicode="&#xbe;" horiz-adv-x="908" 
d="M182 273q-58 0 -98.5 26t-50.5 71l83 22q7 -15 20 -29t40 -14q28 0 44 15.5t16 40.5q0 15 -7.5 28t-25.5 20.5t-50 7.5h-28v58h25q47 0 87 -15t64 -43t24 -67t-20 -65.5t-52.5 -41t-70.5 -14.5zM125 478v55h28q39 0 57.5 13t18.5 37q0 20 -14.5 34t-38.5 14
q-18 0 -34 -9.5t-24 -32.5l-82 21q8 32 29.5 53.5t51 32.5t61.5 11q40 0 71.5 -14.5t50 -40.5t18.5 -60q0 -38 -24.5 -63.5t-63 -38t-80.5 -12.5h-25zM178 0l481 700h92l-481 -700h-92zM601 116l-64 34l185 270l52 -49zM537 78v72l49 4h301v-76h-350zM732 0v372l-10 48h94
v-420h-84z" />
    <glyph glyph-name="questiondown" unicode="&#xbf;" horiz-adv-x="467" 
d="M314 302l3 -177l-65 -3q-58 -2 -94.5 -33t-36.5 -87q0 -50 34.5 -82t88.5 -32q40 0 69 19t39 47l103 -30q-19 -62 -75 -100t-136 -38q-68 0 -120.5 28t-82.5 76.5t-30 111.5q0 55 24 97.5t67.5 68.5t101.5 32l1 102h109zM259 513q30 0 50.5 -20.5t20.5 -50.5
q0 -29 -20.5 -49.5t-50.5 -20.5q-29 0 -49.5 20.5t-20.5 49.5q0 30 20.5 50.5t49.5 20.5z" />
    <glyph glyph-name="Agrave" unicode="&#xc0;" horiz-adv-x="699" 
d="M9 0l279 700h123l280 -700h-123l-69 172h-299l-68 -172h-123zM239 275h221l-110 280zM340 748l-130 136h130l117 -136h-117z" />
    <glyph glyph-name="Aacute" unicode="&#xc1;" horiz-adv-x="699" 
d="M9 0l279 700h123l280 -700h-123l-69 172h-299l-68 -172h-123zM239 275h221l-110 280zM272 745l115 128h130l-129 -128h-116z" />
    <glyph glyph-name="Acircumflex" unicode="&#xc2;" horiz-adv-x="699" 
d="M9 0l279 700h123l280 -700h-123l-69 172h-299l-68 -172h-123zM239 275h221l-110 280zM423 760l-136 129v6h121l123 -135h-108zM163 760l123 135h121v-6l-136 -129h-108z" />
    <glyph glyph-name="Atilde" unicode="&#xc3;" horiz-adv-x="699" 
d="M9 0l279 700h123l280 -700h-123l-69 172h-299l-68 -172h-123zM239 275h221l-110 280zM431 739q-31 0 -50 11t-30 25t-21 25t-25 11q-13 0 -21.5 -8t-14.5 -30h-79q4 35 18 61t38 40t57 14q32 0 50.5 -11t30.5 -25t22.5 -25t24.5 -11q16 0 23 10.5t10 28.5h79
q-6 -50 -33.5 -83t-78.5 -33z" />
    <glyph glyph-name="Adieresis" unicode="&#xc4;" horiz-adv-x="699" 
d="M9 0l279 700h123l280 -700h-123l-69 172h-299l-68 -172h-123zM239 275h221l-110 280zM477 787q-24 0 -42 18t-18 42q0 25 18 43t42 18q25 0 43 -18t18 -43q0 -24 -18 -42t-43 -18zM223 787q-24 0 -42 18t-18 42q0 26 18 43.5t42 17.5q25 0 43 -17.5t18 -43.5
q0 -24 -18 -42t-43 -18z" />
    <glyph glyph-name="Aring" unicode="&#xc5;" horiz-adv-x="699" 
d="M9 0l279 700h123l280 -700h-123l-69 172h-299l-68 -172h-123zM239 275h221l-110 280zM350 728q-29 0 -54 14t-40 37.5t-15 52.5q0 30 15 53.5t39.5 37.5t54.5 14t54.5 -14t39.5 -37.5t15 -53.5q0 -29 -15 -52.5t-39.5 -37.5t-54.5 -14zM350 796q35 0 35 36q0 37 -35 37
q-36 0 -36 -37q0 -36 36 -36z" />
    <glyph glyph-name="AE" unicode="&#xc6;" horiz-adv-x="1011" 
d="M9 0l408 700h519v-106h-314v-186h277v-104h-277v-198h317v-106h-435v172h-263l-101 -172h-131zM297 275h207v319h-22z" />
    <glyph glyph-name="Ccedilla" unicode="&#xc7;" horiz-adv-x="723" 
d="M386 -12q-101 0 -179.5 46.5t-123 128t-44.5 187.5t44.5 187.5t122.5 128t179 46.5q68 0 128 -24.5t106.5 -67.5t71.5 -100l-106 -43q-18 38 -48.5 67.5t-69.5 45.5t-82 16q-66 0 -117.5 -33t-81 -90.5t-29.5 -132.5t29.5 -133t82 -91t119.5 -33q44 0 82.5 17.5t69 48.5
t48.5 72l106 -43q-25 -59 -71 -104.5t-107 -70.5t-130 -25zM348 -210q-21 0 -44.5 6t-50.5 22l19 57q16 -7 31.5 -13t27.5 -6q18 0 31 6.5t13 24.5q0 22 -17 32.5t-52 14.5l29 72l68 -8l-13 -28q36 -13 52.5 -35.5t16.5 -49.5q0 -42 -27.5 -68.5t-83.5 -26.5z" />
    <glyph glyph-name="Egrave" unicode="&#xc8;" horiz-adv-x="590" 
d="M83 0v700h431v-106h-315v-186h278v-104h-278v-198h318v-106h-434zM289 748l-130 136h130l117 -136h-117z" />
    <glyph glyph-name="Eacute" unicode="&#xc9;" horiz-adv-x="590" 
d="M83 0v700h431v-106h-315v-186h278v-104h-278v-198h318v-106h-434zM221 745l116 128h130l-129 -128h-117z" />
    <glyph glyph-name="Ecircumflex" unicode="&#xca;" horiz-adv-x="590" 
d="M83 0v700h431v-106h-315v-186h278v-104h-278v-198h318v-106h-434zM372 760l-136 129v6h121l123 -135h-108zM112 760l123 135h121v-6l-136 -129h-108z" />
    <glyph glyph-name="Edieresis" unicode="&#xcb;" horiz-adv-x="590" 
d="M83 0v700h431v-106h-315v-186h278v-104h-278v-198h318v-106h-434zM426 787q-24 0 -42 18t-18 42q0 25 18 43t42 18q25 0 43 -18t18 -43q0 -24 -18 -42t-43 -18zM172 787q-24 0 -42 18t-18 42q0 26 18 43.5t42 17.5q25 0 43 -17.5t18 -43.5q0 -24 -18 -42t-43 -18z" />
    <glyph glyph-name="Igrave" unicode="&#xcc;" horiz-adv-x="282" 
d="M83 0v700h116v-700h-116zM132 748l-130 136h130l117 -136h-117z" />
    <glyph glyph-name="Iacute" unicode="&#xcd;" horiz-adv-x="282" 
d="M83 0v700h116v-700h-116zM64 745l115 128h130l-129 -128h-116z" />
    <glyph glyph-name="Icircumflex" unicode="&#xce;" horiz-adv-x="282" 
d="M83 0v700h116v-700h-116zM215 760l-136 129v6h121l123 -135h-108zM-45 760l123 135h121v-6l-136 -129h-108z" />
    <glyph glyph-name="Idieresis" unicode="&#xcf;" horiz-adv-x="292" 
d="M224 787q-24 0 -42.5 18t-18.5 42q0 25 18.5 43t42.5 18q25 0 43 -18t18 -43q0 -24 -18 -42t-43 -18zM69 787q-25 0 -43 18t-18 42q0 25 18 43t43 18t43 -18t18 -43q0 -24 -18 -42t-43 -18zM83 0v700h116v-700h-116z" />
    <glyph glyph-name="Eth" unicode="&#xd0;" horiz-adv-x="748" 
d="M63 306v87h325v-87h-325zM136 0v700h219q104 0 183.5 -44.5t125 -123.5t45.5 -182q0 -102 -45.5 -181t-125 -124t-183.5 -45h-219zM252 108h103q50 0 92.5 18.5t75 51.5t50 77t17.5 95t-17.5 95t-50 77t-75 51.5t-92.5 18.5h-103v-484z" />
    <glyph glyph-name="Ntilde" unicode="&#xd1;" horiz-adv-x="774" 
d="M83 0v700h120l372 -506v506h116v-700h-116l-376 512v-512h-116zM465 730q-31 0 -50 11t-30 25t-21 25t-25 11q-13 0 -21.5 -8t-14.5 -30h-79q4 35 18 61t38 40t57 14q32 0 50.5 -11t30.5 -25t22.5 -25t24.5 -11q16 0 23 10.5t10 28.5h79q-6 -50 -33.5 -83t-78.5 -33z" />
    <glyph glyph-name="Ograve" unicode="&#xd2;" horiz-adv-x="783" 
d="M394 -12q-104 0 -184 46t-125.5 128t-45.5 188t45.5 187.5t124.5 128t182 46.5q104 0 183.5 -46.5t124 -128t44.5 -187.5t-44.5 -188t-123 -128t-181.5 -46zM394 94q68 0 120 33t81.5 90.5t29.5 132.5q0 74 -30 132t-82.5 90.5t-121.5 32.5q-68 0 -120.5 -32.5t-83 -90
t-30.5 -132.5t30.5 -132.5t84 -90.5t122.5 -33zM382 748l-130 136h130l117 -136h-117z" />
    <glyph glyph-name="Oacute" unicode="&#xd3;" horiz-adv-x="783" 
d="M394 -12q-104 0 -184 46t-125.5 128t-45.5 188t45.5 187.5t124.5 128t182 46.5q104 0 183.5 -46.5t124 -128t44.5 -187.5t-44.5 -188t-123 -128t-181.5 -46zM394 94q68 0 120 33t81.5 90.5t29.5 132.5q0 74 -30 132t-82.5 90.5t-121.5 32.5q-68 0 -120.5 -32.5t-83 -90
t-30.5 -132.5t30.5 -132.5t84 -90.5t122.5 -33zM312 745l119 128h133l-133 -128h-119z" />
    <glyph glyph-name="Ocircumflex" unicode="&#xd4;" horiz-adv-x="783" 
d="M394 -12q-104 0 -184 46t-125.5 128t-45.5 188t45.5 187.5t124.5 128t182 46.5q104 0 183.5 -46.5t124 -128t44.5 -187.5t-44.5 -188t-123 -128t-181.5 -46zM394 94q68 0 120 33t81.5 90.5t29.5 132.5q0 74 -30 132t-82.5 90.5t-121.5 32.5q-68 0 -120.5 -32.5t-83 -90
t-30.5 -132.5t30.5 -132.5t84 -90.5t122.5 -33zM465 760l-136 129v6h121l123 -135h-108zM205 760l123 135h121v-6l-136 -129h-108z" />
    <glyph glyph-name="Otilde" unicode="&#xd5;" horiz-adv-x="783" 
d="M394 -12q-104 0 -184 46t-125.5 128t-45.5 188t45.5 187.5t124.5 128t182 46.5q104 0 183.5 -46.5t124 -128t44.5 -187.5t-44.5 -188t-123 -128t-181.5 -46zM394 94q68 0 120 33t81.5 90.5t29.5 132.5q0 74 -30 132t-82.5 90.5t-121.5 32.5q-68 0 -120.5 -32.5t-83 -90
t-30.5 -132.5t30.5 -132.5t84 -90.5t122.5 -33zM473 739q-31 0 -50 11t-30 25t-21 25t-25 11q-13 0 -21.5 -8t-14.5 -30h-79q4 35 18 61t38 40t57 14q32 0 50.5 -11t30.5 -25t22.5 -25t24.5 -11q16 0 23 10.5t10 28.5h79q-6 -50 -33.5 -83t-78.5 -33z" />
    <glyph glyph-name="Odieresis" unicode="&#xd6;" horiz-adv-x="783" 
d="M394 -12q-104 0 -184 46t-125.5 128t-45.5 188t45.5 187.5t124.5 128t182 46.5q104 0 183.5 -46.5t124 -128t44.5 -187.5t-44.5 -188t-123 -128t-181.5 -46zM394 94q68 0 120 33t81.5 90.5t29.5 132.5q0 74 -30 132t-82.5 90.5t-121.5 32.5q-68 0 -120.5 -32.5t-83 -90
t-30.5 -132.5t30.5 -132.5t84 -90.5t122.5 -33zM518 787q-24 0 -42 18t-18 42q0 25 18 43t42 18q25 0 43 -18t18 -43q0 -24 -18 -42t-43 -18zM264 787q-24 0 -42 18t-18 42q0 26 18 43.5t42 17.5q25 0 43 -17.5t18 -43.5q0 -24 -18 -42t-43 -18z" />
    <glyph glyph-name="multiply" unicode="&#xd7;" 
d="M452 96l-340 339l64 65l340 -340zM176 96l-64 64l339 340l65 -65z" />
    <glyph glyph-name="Oslash" unicode="&#xd8;" horiz-adv-x="787" 
d="M35 0l608 700h110l-609 -700h-109zM394 -12q-103 0 -183 46t-125.5 128t-45.5 188t45 187.5t124.5 128t182.5 46.5q104 0 183 -46.5t124 -128t45 -187.5t-44.5 -188t-123.5 -128t-182 -46zM395 94q68 0 120 33t81.5 90.5t29.5 132.5q0 74 -30 132t-82.5 90.5t-121.5 32.5
q-68 0 -121 -32.5t-83 -90t-30 -132.5t30.5 -132.5t84 -90.5t122.5 -33z" />
    <glyph glyph-name="Ugrave" unicode="&#xd9;" horiz-adv-x="705" 
d="M350 -14q-83 0 -145.5 33.5t-97 94.5t-34.5 142v444h116v-444q0 -49 20.5 -85.5t57.5 -57t85 -20.5q49 0 86.5 20.5t57.5 57t20 85.5v444h116v-444q0 -81 -34.5 -142t-98 -94.5t-149.5 -33.5zM343 748l-130 136h130l117 -136h-117z" />
    <glyph glyph-name="Uacute" unicode="&#xda;" horiz-adv-x="705" 
d="M350 -14q-83 0 -145.5 33.5t-97 94.5t-34.5 142v444h116v-444q0 -49 20.5 -85.5t57.5 -57t85 -20.5q49 0 86.5 20.5t57.5 57t20 85.5v444h116v-444q0 -81 -34.5 -142t-98 -94.5t-149.5 -33.5zM275 747l115 132h130l-129 -132h-116z" />
    <glyph glyph-name="Ucircumflex" unicode="&#xdb;" horiz-adv-x="705" 
d="M350 -14q-83 0 -145.5 33.5t-97 94.5t-34.5 142v444h116v-444q0 -49 20.5 -85.5t57.5 -57t85 -20.5q49 0 86.5 20.5t57.5 57t20 85.5v444h116v-444q0 -81 -34.5 -142t-98 -94.5t-149.5 -33.5zM426 760l-136 129v6h121l123 -135h-108zM166 760l123 135h121v-6l-136 -129
h-108z" />
    <glyph glyph-name="Udieresis" unicode="&#xdc;" horiz-adv-x="705" 
d="M350 -14q-83 0 -145.5 33.5t-97 94.5t-34.5 142v444h116v-444q0 -49 20.5 -85.5t57.5 -57t85 -20.5q49 0 86.5 20.5t57.5 57t20 85.5v444h116v-444q0 -81 -34.5 -142t-98 -94.5t-149.5 -33.5zM480 787q-24 0 -42 18t-18 42q0 25 18 43t42 18q25 0 43 -18t18 -43
q0 -24 -18 -42t-43 -18zM226 787q-24 0 -42 18t-18 42q0 26 18 43.5t42 17.5q25 0 43 -17.5t18 -43.5q0 -24 -18 -42t-43 -18z" />
    <glyph glyph-name="Yacute" unicode="&#xdd;" horiz-adv-x="630" 
d="M257 0v294l-249 406h133l174 -289l174 289h133l-249 -405v-295h-116zM237 735l116 135h130l-129 -135h-117z" />
    <glyph glyph-name="Thorn" unicode="&#xde;" horiz-adv-x="602" 
d="M87 1v700h118v-113h131q72 0 127.5 -29t86.5 -80.5t31 -118.5t-29.5 -119t-81 -81.5t-118.5 -29.5h-147v-129h-118zM205 237h143q50 0 81.5 34t31.5 89t-36 89t-93 34h-127v-246z" />
    <glyph glyph-name="germandbls" unicode="&#xdf;" horiz-adv-x="578" 
d="M62 0v501q0 67 29 114.5t81 72t120 24.5q66 0 117 -23.5t79.5 -68.5t28.5 -108q0 -49 -19.5 -87.5t-55.5 -63.5q48 -24 72.5 -66.5t24.5 -103.5t-27.5 -103.5t-77.5 -65t-119 -22.5h-52v104h42q56 0 88 26.5t32 68.5q0 48 -32 74.5t-86 26.5h-42v109h8q48 0 77 12.5
t41.5 35.5t12.5 56q0 46 -32 73.5t-81 27.5q-51 0 -83 -31t-32 -82v-501h-114z" />
    <glyph glyph-name="agrave" unicode="&#xe0;" horiz-adv-x="520" 
d="M223 -12q-90 0 -139.5 40t-49.5 113q0 78 52.5 119t146.5 41h127q-6 55 -31 84t-74 29q-36 0 -63 -15t-46 -47l-98 36q16 33 42.5 61.5t67 45.5t97.5 17q73 0 122 -28.5t72.5 -81.5t23.5 -128l-3 -274h-103l-3 61q-20 -35 -55.5 -54t-85.5 -19zM237 82q37 0 65.5 16.5
t44 44.5t15.5 62v10h-93q-67 0 -94 -18.5t-27 -52.5q0 -29 23.5 -45.5t65.5 -16.5zM242 565l-130 136h130l117 -136h-117z" />
    <glyph glyph-name="aacute" unicode="&#xe1;" horiz-adv-x="520" 
d="M223 -12q-90 0 -139.5 40t-49.5 113q0 78 52.5 119t146.5 41h127q-6 55 -31 84t-74 29q-36 0 -63 -15t-46 -47l-98 36q16 33 42.5 61.5t67 45.5t97.5 17q73 0 122 -28.5t72.5 -81.5t23.5 -128l-3 -274h-103l-3 61q-20 -35 -55.5 -54t-85.5 -19zM237 82q37 0 65.5 16.5
t44 44.5t15.5 62v10h-93q-67 0 -94 -18.5t-27 -52.5q0 -29 23.5 -45.5t65.5 -16.5zM174 565l116 135h130l-129 -135h-117z" />
    <glyph glyph-name="acircumflex" unicode="&#xe2;" horiz-adv-x="520" 
d="M223 -12q-90 0 -139.5 40t-49.5 113q0 78 52.5 119t146.5 41h127q-6 55 -31 84t-74 29q-36 0 -63 -15t-46 -47l-98 36q16 33 42.5 61.5t67 45.5t97.5 17q73 0 122 -28.5t72.5 -81.5t23.5 -128l-3 -274h-103l-3 61q-20 -35 -55.5 -54t-85.5 -19zM237 82q37 0 65.5 16.5
t44 44.5t15.5 62v10h-93q-67 0 -94 -18.5t-27 -52.5q0 -29 23.5 -45.5t65.5 -16.5zM325 577l-136 129v6h121l123 -135h-108zM65 577l123 135h121v-6l-136 -129h-108z" />
    <glyph glyph-name="atilde" unicode="&#xe3;" horiz-adv-x="520" 
d="M223 -12q-90 0 -139.5 40t-49.5 113q0 78 52.5 119t146.5 41h127q-6 55 -31 84t-74 29q-36 0 -63 -15t-46 -47l-98 36q16 33 42.5 61.5t67 45.5t97.5 17q73 0 122 -28.5t72.5 -81.5t23.5 -128l-3 -274h-103l-3 61q-20 -35 -55.5 -54t-85.5 -19zM237 82q37 0 65.5 16.5
t44 44.5t15.5 62v10h-93q-67 0 -94 -18.5t-27 -52.5q0 -29 23.5 -45.5t65.5 -16.5zM333 556q-31 0 -50 11t-30 25t-21 25t-25 11q-13 0 -21.5 -8t-14.5 -30h-79q4 35 18 61t38 40t57 14q32 0 50.5 -11t30.5 -25t22.5 -25t24.5 -11q16 0 23 10.5t10 28.5h79q-6 -50 -33.5 -83
t-78.5 -33z" />
    <glyph glyph-name="adieresis" unicode="&#xe4;" horiz-adv-x="520" 
d="M223 -12q-90 0 -139.5 40t-49.5 113q0 78 52.5 119t146.5 41h127q-6 55 -31 84t-74 29q-36 0 -63 -15t-46 -47l-98 36q16 33 42.5 61.5t67 45.5t97.5 17q73 0 122 -28.5t72.5 -81.5t23.5 -128l-3 -274h-103l-3 61q-20 -35 -55.5 -54t-85.5 -19zM237 82q37 0 65.5 16.5
t44 44.5t15.5 62v10h-93q-67 0 -94 -18.5t-27 -52.5q0 -29 23.5 -45.5t65.5 -16.5zM379 604q-24 0 -42 18t-18 42q0 25 18 43t42 18q25 0 43 -18t18 -43q0 -24 -18 -42t-43 -18zM125 604q-24 0 -42 18t-18 42q0 26 18 43.5t42 17.5q25 0 43 -17.5t18 -43.5q0 -24 -18 -42
t-43 -18z" />
    <glyph glyph-name="aring" unicode="&#xe5;" horiz-adv-x="520" 
d="M223 -12q-90 0 -139.5 40t-49.5 113q0 78 52.5 119t146.5 41h127q-6 55 -31 84t-74 29q-36 0 -63 -15t-46 -47l-98 36q16 33 42.5 61.5t67 45.5t97.5 17q73 0 122 -28.5t72.5 -81.5t23.5 -128l-3 -274h-103l-3 61q-20 -35 -55.5 -54t-85.5 -19zM237 82q37 0 65.5 16.5
t44 44.5t15.5 62v10h-93q-67 0 -94 -18.5t-27 -52.5q0 -29 23.5 -45.5t65.5 -16.5zM252 545q-29 0 -54 14t-40 37.5t-15 52.5q0 30 15 53.5t39.5 37.5t54.5 14t54.5 -14t39.5 -37.5t15 -53.5q0 -29 -15 -52.5t-39.5 -37.5t-54.5 -14zM252 613q35 0 35 36q0 37 -35 37
q-36 0 -36 -37q0 -36 36 -36z" />
    <glyph glyph-name="ae" unicode="&#xe6;" horiz-adv-x="876" 
d="M367 171l-7 87q-4 52 -14 87.5t-33 54.5t-68 19q-37 0 -63.5 -15t-44.5 -46l-99 36q34 56 85.5 87t122.5 31q101 0 153.5 -62t52.5 -176v-103h-85zM220 -12q-87 0 -136.5 40t-49.5 113q0 75 49.5 115t136.5 40h171v-76h-137q-56 0 -82 -20t-26 -58q0 -32 24 -50t66 -18
q57 0 89.5 40.5t32.5 107.5l91 8q0 -112 -60.5 -177t-168.5 -65zM608 -12q-73 0 -129.5 33.5t-89 92.5t-32.5 136t33 136t90.5 92.5t131.5 33.5q67 0 121 -34.5t85.5 -99.5t31.5 -155h-377q5 -63 46.5 -99t98.5 -36q46 0 76 20.5t47 53.5l99 -42q-21 -40 -53.5 -70t-77 -46
t-101.5 -16zM480 309h249q-3 36 -21 59.5t-44 35.5t-55 12q-28 0 -56.5 -11.5t-48.5 -35.5t-24 -60z" />
    <glyph glyph-name="ccedilla" unicode="&#xe7;" horiz-adv-x="544" 
d="M296 -12q-77 0 -136 33.5t-92.5 92.5t-33.5 136t33.5 136t92 92.5t134.5 33.5q74 0 134 -35.5t89 -101.5l-104 -40q-16 33 -49 53t-75 20q-41 0 -73 -20.5t-50 -56t-18 -81.5t18.5 -81.5t51 -56t73.5 -20.5q42 0 75 21.5t49 58.5l104 -40q-29 -68 -88.5 -106t-134.5 -38z
M257 -210q-21 0 -44.5 6t-50.5 22l19 57q16 -7 31.5 -13t27.5 -6q18 0 31 6.5t13 24.5q0 22 -17 32.5t-52 14.5l29 72l68 -8l-13 -28q36 -13 52.5 -35.5t16.5 -49.5q0 -42 -27.5 -68.5t-83.5 -26.5z" />
    <glyph glyph-name="egrave" unicode="&#xe8;" horiz-adv-x="553" 
d="M285 -12q-73 0 -129.5 33.5t-89 92.5t-32.5 136t33 136t90.5 92.5t131.5 33.5q67 0 121 -34.5t85.5 -99.5t31.5 -155h-377q5 -63 46.5 -99t98.5 -36q46 0 76 20.5t47 53.5l99 -42q-21 -40 -53.5 -70t-77 -46t-101.5 -16zM157 309h249q-3 36 -21 59.5t-44 35.5t-55 12
q-28 0 -56.5 -11.5t-48.5 -35.5t-24 -60zM280 565l-130 136h130l117 -136h-117z" />
    <glyph glyph-name="eacute" unicode="&#xe9;" horiz-adv-x="553" 
d="M285 -12q-73 0 -129.5 33.5t-89 92.5t-32.5 136t33 136t90.5 92.5t131.5 33.5q67 0 121 -34.5t85.5 -99.5t31.5 -155h-377q5 -63 46.5 -99t98.5 -36q46 0 76 20.5t47 53.5l99 -42q-21 -40 -53.5 -70t-77 -46t-101.5 -16zM157 309h249q-3 36 -21 59.5t-44 35.5t-55 12
q-28 0 -56.5 -11.5t-48.5 -35.5t-24 -60zM212 565l116 135h130l-129 -135h-117z" />
    <glyph glyph-name="ecircumflex" unicode="&#xea;" horiz-adv-x="553" 
d="M285 -12q-73 0 -129.5 33.5t-89 92.5t-32.5 136t33 136t90.5 92.5t131.5 33.5q67 0 121 -34.5t85.5 -99.5t31.5 -155h-377q5 -63 46.5 -99t98.5 -36q46 0 76 20.5t47 53.5l99 -42q-21 -40 -53.5 -70t-77 -46t-101.5 -16zM157 309h249q-3 36 -21 59.5t-44 35.5t-55 12
q-28 0 -56.5 -11.5t-48.5 -35.5t-24 -60zM363 577l-136 129v6h121l123 -135h-108zM103 577l123 135h121v-6l-136 -129h-108z" />
    <glyph glyph-name="edieresis" unicode="&#xeb;" horiz-adv-x="553" 
d="M285 -12q-73 0 -129.5 33.5t-89 92.5t-32.5 136t33 136t90.5 92.5t131.5 33.5q67 0 121 -34.5t85.5 -99.5t31.5 -155h-377q5 -63 46.5 -99t98.5 -36q46 0 76 20.5t47 53.5l99 -42q-21 -40 -53.5 -70t-77 -46t-101.5 -16zM157 309h249q-3 36 -21 59.5t-44 35.5t-55 12
q-28 0 -56.5 -11.5t-48.5 -35.5t-24 -60zM417 604q-24 0 -42 18t-18 42q0 25 18 43t42 18q25 0 43 -18t18 -43q0 -24 -18 -42t-43 -18zM163 604q-24 0 -42 18t-18 42q0 26 18 43.5t42 17.5q25 0 43 -17.5t18 -43.5q0 -24 -18 -42t-43 -18z" />
    <glyph glyph-name="igrave" unicode="&#xec;" horiz-adv-x="250" 
d="M69 0v500h111v-500h-111zM115 565l-130 136h130l117 -136h-117z" />
    <glyph glyph-name="iacute" unicode="&#xed;" horiz-adv-x="250" 
d="M69 0v500h111v-500h-111zM47 565l116 135h130l-129 -135h-117z" />
    <glyph glyph-name="icircumflex" unicode="&#xee;" horiz-adv-x="250" 
d="M69 0v500h111v-500h-111zM198 577l-136 129v6h121l123 -135h-108zM-62 577l123 135h121v-6l-136 -129h-108z" />
    <glyph glyph-name="idieresis" unicode="&#xef;" horiz-adv-x="250" 
d="M203 604q-24 0 -42.5 18t-18.5 42q0 25 18.5 43t42.5 18q25 0 42.5 -18t17.5 -43q0 -24 -17.5 -42t-42.5 -18zM48 604q-25 0 -43 18t-18 42q0 26 18 43.5t43 17.5t42.5 -17.5t17.5 -43.5q0 -24 -17.5 -42t-42.5 -18zM69 0v500h111v-500h-111z" />
    <glyph glyph-name="eth" unicode="&#xf0;" horiz-adv-x="577" 
d="M284 -12q-73 0 -129.5 31.5t-88.5 87.5t-32 128q0 73 30 128.5t84 87.5t124 32q77 0 135 -53q-10 35 -27.5 65t-42.5 54l-73 -49l-34 50l55 36q-57 34 -142 52l21 96q67 -11 119 -33t93 -53l72 48l33 -50l-59 -40q41 -45 65.5 -102t35 -122.5t9.5 -137.5
q0 -75 -31.5 -132.5t-88 -90.5t-128.5 -33zM284 89q40 0 70 19t47 51.5t17 75.5t-17 76t-48 51.5t-71 18.5q-39 0 -69 -18.5t-47.5 -51.5t-17.5 -76t17.5 -75.5t48 -51.5t70.5 -19z" />
    <glyph glyph-name="ntilde" unicode="&#xf1;" horiz-adv-x="564" 
d="M62 0v500h105l5 -71q24 40 62.5 61.5t88.5 21.5q60 0 102.5 -24t65 -74.5t22.5 -131.5v-282h-112v256q0 60 -13.5 92.5t-38 45.5t-57.5 13q-56 1 -87 -37t-31 -109v-261h-112zM361 556q-31 0 -50 11t-30 25t-21 25t-25 11q-13 0 -21.5 -8t-14.5 -30h-79q4 35 18 61t38 40
t57 14q32 0 50.5 -11t30.5 -25t22.5 -25t24.5 -11q16 0 23 10.5t10 28.5h79q-6 -50 -33.5 -83t-78.5 -33z" />
    <glyph glyph-name="ograve" unicode="&#xf2;" horiz-adv-x="581" 
d="M292 -12q-75 0 -133.5 33.5t-91.5 92.5t-33 136t32.5 136t90.5 92.5t133 33.5t133 -33.5t90.5 -92.5t32.5 -136t-32 -136t-90 -92.5t-132 -33.5zM292 91q41 0 73 20.5t50 56t18 82.5t-18.5 82.5t-50.5 56t-74 20.5t-74 -20t-50 -56t-18 -83t18.5 -82.5t51 -56t74.5 -20.5
zM278 565l-130 136h130l117 -136h-117z" />
    <glyph glyph-name="oacute" unicode="&#xf3;" horiz-adv-x="581" 
d="M292 -12q-75 0 -133.5 33.5t-91.5 92.5t-33 136t32.5 136t90.5 92.5t133 33.5t133 -33.5t90.5 -92.5t32.5 -136t-32 -136t-90 -92.5t-132 -33.5zM292 91q41 0 73 20.5t50 56t18 82.5t-18.5 82.5t-50.5 56t-74 20.5t-74 -20t-50 -56t-18 -83t18.5 -82.5t51 -56t74.5 -20.5
zM210 565l116 135h130l-129 -135h-117z" />
    <glyph glyph-name="ocircumflex" unicode="&#xf4;" horiz-adv-x="581" 
d="M292 -12q-75 0 -133.5 33.5t-91.5 92.5t-33 136t32.5 136t90.5 92.5t133 33.5t133 -33.5t90.5 -92.5t32.5 -136t-32 -136t-90 -92.5t-132 -33.5zM292 91q41 0 73 20.5t50 56t18 82.5t-18.5 82.5t-50.5 56t-74 20.5t-74 -20t-50 -56t-18 -83t18.5 -82.5t51 -56t74.5 -20.5
zM361 577l-136 129v6h121l123 -135h-108zM101 577l123 135h121v-6l-136 -129h-108z" />
    <glyph glyph-name="otilde" unicode="&#xf5;" horiz-adv-x="581" 
d="M292 -12q-75 0 -133.5 33.5t-91.5 92.5t-33 136t32.5 136t90.5 92.5t133 33.5t133 -33.5t90.5 -92.5t32.5 -136t-32 -136t-90 -92.5t-132 -33.5zM292 91q41 0 73 20.5t50 56t18 82.5t-18.5 82.5t-50.5 56t-74 20.5t-74 -20t-50 -56t-18 -83t18.5 -82.5t51 -56t74.5 -20.5
zM369 556q-31 0 -50 11t-30 25t-21 25t-25 11q-13 0 -21.5 -8t-14.5 -30h-79q4 35 18 61t38 40t57 14q32 0 50.5 -11t30.5 -25t22.5 -25t24.5 -11q16 0 23 10.5t10 28.5h79q-6 -50 -33.5 -83t-78.5 -33z" />
    <glyph glyph-name="odieresis" unicode="&#xf6;" horiz-adv-x="581" 
d="M292 -12q-75 0 -133.5 33.5t-91.5 92.5t-33 136t32.5 136t90.5 92.5t133 33.5t133 -33.5t90.5 -92.5t32.5 -136t-32 -136t-90 -92.5t-132 -33.5zM292 91q41 0 73 20.5t50 56t18 82.5t-18.5 82.5t-50.5 56t-74 20.5t-74 -20t-50 -56t-18 -83t18.5 -82.5t51 -56t74.5 -20.5
zM415 604q-24 0 -42 18t-18 42q0 25 18 43t42 18q25 0 43 -18t18 -43q0 -24 -18 -42t-43 -18zM161 604q-24 0 -42 18t-18 42q0 26 18 43.5t42 17.5q25 0 43 -17.5t18 -43.5q0 -24 -18 -42t-43 -18z" />
    <glyph glyph-name="divide" unicode="&#xf7;" 
d="M114 251v94h401v-94h-401zM314 84q-21 0 -37 16t-16 38t16 38t37 16q22 0 38 -16t16 -38t-16 -38t-38 -16zM314 403q-21 0 -37.5 16.5t-16.5 37.5q0 22 16.5 38t37.5 16q22 0 38 -16t16 -38q0 -21 -16 -37.5t-38 -16.5z" />
    <glyph glyph-name="oslash" unicode="&#xf8;" horiz-adv-x="579" 
d="M21 0l432 500h104l-432 -500h-104zM289 -12q-75 0 -133 33.5t-91 92.5t-33 136t32 136t90.5 92.5t132.5 33.5q75 0 133.5 -33.5t91 -92.5t32.5 -136t-32.5 -136t-90 -92.5t-132.5 -33.5zM289 91q42 0 73.5 20.5t49.5 56t18 82.5t-18 82.5t-50.5 56t-74.5 20.5
q-41 0 -73 -20t-50.5 -56t-18.5 -83t18.5 -82.5t51 -56t74.5 -20.5z" />
    <glyph glyph-name="ugrave" unicode="&#xf9;" horiz-adv-x="564" 
d="M241 -12q-59 0 -101.5 24t-65.5 75t-23 131v282h112v-256q0 -59 14 -92t38.5 -46t56.5 -13q57 -1 88 37t31 109v261h111v-500h-105l-5 71q-24 -40 -62.5 -61.5t-88.5 -21.5zM271 565l-130 136h130l117 -136h-117z" />
    <glyph glyph-name="uacute" unicode="&#xfa;" horiz-adv-x="564" 
d="M241 -12q-59 0 -101.5 24t-65.5 75t-23 131v282h112v-256q0 -59 14 -92t38.5 -46t56.5 -13q57 -1 88 37t31 109v261h111v-500h-105l-5 71q-24 -40 -62.5 -61.5t-88.5 -21.5zM203 565l116 135h130l-129 -135h-117z" />
    <glyph glyph-name="ucircumflex" unicode="&#xfb;" horiz-adv-x="564" 
d="M241 -12q-59 0 -101.5 24t-65.5 75t-23 131v282h112v-256q0 -59 14 -92t38.5 -46t56.5 -13q57 -1 88 37t31 109v261h111v-500h-105l-5 71q-24 -40 -62.5 -61.5t-88.5 -21.5zM354 577l-136 129v6h121l123 -135h-108zM94 577l123 135h121v-6l-136 -129h-108z" />
    <glyph glyph-name="udieresis" unicode="&#xfc;" horiz-adv-x="564" 
d="M241 -12q-59 0 -101.5 24t-65.5 75t-23 131v282h112v-256q0 -59 14 -92t38.5 -46t56.5 -13q57 -1 88 37t31 109v261h111v-500h-105l-5 71q-24 -40 -62.5 -61.5t-88.5 -21.5zM408 604q-24 0 -42 18t-18 42q0 25 18 43t42 18q25 0 43 -18t18 -43q0 -24 -18 -42t-43 -18z
M154 604q-24 0 -42 18t-18 42q0 26 18 43.5t42 17.5q25 0 43 -17.5t18 -43.5q0 -24 -18 -42t-43 -18z" />
    <glyph glyph-name="yacute" unicode="&#xfd;" horiz-adv-x="556" 
d="M141 -212q-24 0 -53.5 9t-56.5 23l42 91q19 -9 35 -14.5t26 -5.5q24 0 40.5 12.5t26.5 36.5l27 64l-222 496h122l152 -368l149 368h122l-232 -553q-21 -48 -42.5 -84t-53.5 -55.5t-82 -19.5zM200 565l116 135h130l-129 -135h-117z" />
    <glyph glyph-name="thorn" unicode="&#xfe;" horiz-adv-x="592" 
d="M62 -200v900h112v-274q26 41 66 63.5t92 22.5q68 0 118.5 -32.5t79 -91t28.5 -138.5q0 -79 -28.5 -138t-79 -91.5t-118.5 -32.5q-52 0 -92 23t-66 63v-274h-112zM304 90q40 0 71 20.5t49.5 56.5t18.5 83t-17.5 83t-48.5 56t-72 20q-38 0 -68 -20t-46.5 -56t-16.5 -83
t16.5 -83t46 -56.5t67.5 -20.5z" />
    <glyph glyph-name="ydieresis" unicode="&#xff;" horiz-adv-x="556" 
d="M141 -212q-24 0 -53.5 9t-56.5 23l42 91q19 -9 35 -14.5t26 -5.5q24 0 40.5 12.5t26.5 36.5l27 64l-222 496h122l152 -368l149 368h122l-232 -553q-21 -48 -42.5 -84t-53.5 -55.5t-82 -19.5zM405 604q-24 0 -42 18t-18 42q0 25 18 43t42 18q25 0 43 -18t18 -43
q0 -24 -18 -42t-43 -18zM151 604q-24 0 -42 18t-18 42q0 26 18 43.5t42 17.5q25 0 43 -17.5t18 -43.5q0 -24 -18 -42t-43 -18z" />
    <glyph glyph-name="Amacron" unicode="&#x100;" horiz-adv-x="699" 
d="M9 0l279 700h123l280 -700h-123l-69 172h-299l-68 -172h-123zM239 275h221l-110 280zM191 750v97h318v-97h-318z" />
    <glyph glyph-name="amacron" unicode="&#x101;" horiz-adv-x="520" 
d="M223 -12q-90 0 -139.5 40t-49.5 113q0 78 52.5 119t146.5 41h127q-6 55 -31 84t-74 29q-36 0 -63 -15t-46 -47l-98 36q16 33 42.5 61.5t67 45.5t97.5 17q73 0 122 -28.5t72.5 -81.5t23.5 -128l-3 -274h-103l-3 61q-20 -35 -55.5 -54t-85.5 -19zM237 82q37 0 65.5 16.5
t44 44.5t15.5 62v10h-93q-67 0 -94 -18.5t-27 -52.5q0 -29 23.5 -45.5t65.5 -16.5zM93 567v97h318v-97h-318z" />
    <glyph glyph-name="Abreve" unicode="&#x102;" horiz-adv-x="699" 
d="M9 0l279 700h123l280 -700h-123l-69 172h-299l-68 -172h-123zM239 275h221l-110 280zM350 740q-52 0 -93 18t-64 51t-23 74h105q0 -27 21 -44t54 -17t54 17t21 44h104q0 -41 -22.5 -74t-63 -51t-93.5 -18z" />
    <glyph glyph-name="abreve" unicode="&#x103;" horiz-adv-x="520" 
d="M223 -12q-90 0 -139.5 40t-49.5 113q0 78 52.5 119t146.5 41h127q-6 55 -31 84t-74 29q-36 0 -63 -15t-46 -47l-98 36q16 33 42.5 61.5t67 45.5t97.5 17q73 0 122 -28.5t72.5 -81.5t23.5 -128l-3 -274h-103l-3 61q-20 -35 -55.5 -54t-85.5 -19zM237 82q37 0 65.5 16.5
t44 44.5t15.5 62v10h-93q-67 0 -94 -18.5t-27 -52.5q0 -29 23.5 -45.5t65.5 -16.5zM252 557q-52 0 -93 18t-64 51t-23 74h105q0 -27 21 -44t54 -17t54 17t21 44h104q0 -41 -22.5 -74t-63 -51t-93.5 -18z" />
    <glyph glyph-name="Aogonek" unicode="&#x104;" horiz-adv-x="699" 
d="M9 0l279 700h123l280 -700h-123l-69 172h-299l-68 -172h-123zM239 275h221l-110 280zM646 -212q-37 0 -66 11.5t-45.5 34.5t-16.5 57q0 35 26 64.5t59 51.5l88 -7q-31 -22 -55 -48.5t-24 -54.5q0 -12 8.5 -19.5t22.5 -7.5t25 3.5t16 5.5l34 -73q-14 -9 -32 -13.5
t-40 -4.5z" />
    <glyph glyph-name="aogonek" unicode="&#x105;" horiz-adv-x="520" 
d="M223 -12q-90 0 -139.5 40t-49.5 113q0 78 52.5 119t146.5 41h127q-6 55 -31 84t-74 29q-36 0 -63 -15t-46 -47l-98 36q16 33 42.5 61.5t67 45.5t97.5 17q73 0 122 -28.5t72.5 -81.5t23.5 -128l-3 -274h-103l-3 61q-20 -35 -55.5 -54t-85.5 -19zM237 82q37 0 65.5 16.5
t44 44.5t15.5 62v10h-93q-67 0 -94 -18.5t-27 -52.5q0 -29 23.5 -45.5t65.5 -16.5zM424 -212q-37 0 -66 11.5t-45.5 34.5t-16.5 57q0 35 26 64.5t59 51.5l88 -7q-31 -22 -55 -48.5t-24 -54.5q0 -12 8.5 -19.5t22.5 -7.5t25 3.5t16 5.5l34 -73q-14 -9 -32 -13.5t-40 -4.5z
" />
    <glyph glyph-name="Cacute" unicode="&#x106;" horiz-adv-x="723" 
d="M386 -12q-101 0 -179.5 46.5t-123 128t-44.5 187.5t44.5 187.5t122.5 128t179 46.5q68 0 128 -24.5t106.5 -67.5t71.5 -100l-106 -43q-18 38 -48.5 67.5t-69.5 45.5t-82 16q-66 0 -117.5 -33t-81 -90.5t-29.5 -132.5t29.5 -133t82 -91t119.5 -33q44 0 82.5 17.5t69 48.5
t48.5 72l106 -43q-25 -59 -71 -104.5t-107 -70.5t-130 -25zM306 748l116 135h130l-129 -135h-117z" />
    <glyph glyph-name="cacute" unicode="&#x107;" horiz-adv-x="544" 
d="M296 -12q-77 0 -136 33.5t-92.5 92.5t-33.5 136t33.5 136t92 92.5t134.5 33.5q74 0 134 -35.5t89 -101.5l-104 -40q-16 33 -49 53t-75 20q-41 0 -73 -20.5t-50 -56t-18 -81.5t18.5 -81.5t51 -56t73.5 -20.5q42 0 75 21.5t49 58.5l104 -40q-29 -68 -88.5 -106t-134.5 -38z
M215 565l116 135h130l-129 -135h-117z" />
    <glyph glyph-name="Ccircumflex" unicode="&#x108;" horiz-adv-x="723" 
d="M386 -12q-101 0 -179.5 46.5t-123 128t-44.5 187.5t44.5 187.5t122.5 128t179 46.5q68 0 128 -24.5t106.5 -67.5t71.5 -100l-106 -43q-18 38 -48.5 67.5t-69.5 45.5t-82 16q-66 0 -117.5 -33t-81 -90.5t-29.5 -132.5t29.5 -133t82 -91t119.5 -33q44 0 82.5 17.5t69 48.5
t48.5 72l106 -43q-25 -59 -71 -104.5t-107 -70.5t-130 -25zM458 760l-136 129v6h121l123 -135h-108zM198 760l123 135h121v-6l-136 -129h-108z" />
    <glyph glyph-name="ccircumflex" unicode="&#x109;" horiz-adv-x="544" 
d="M296 -12q-77 0 -136 33.5t-92.5 92.5t-33.5 136t33.5 136t92 92.5t134.5 33.5q74 0 134 -35.5t89 -101.5l-104 -40q-16 33 -49 53t-75 20q-41 0 -73 -20.5t-50 -56t-18 -81.5t18.5 -81.5t51 -56t73.5 -20.5q42 0 75 21.5t49 58.5l104 -40q-29 -68 -88.5 -106t-134.5 -38z
M367 577l-136 129v6h121l123 -135h-108zM107 577l123 135h121v-6l-136 -129h-108z" />
    <glyph glyph-name="Cdotaccent" unicode="&#x10a;" horiz-adv-x="723" 
d="M386 -12q-101 0 -179.5 46.5t-123 128t-44.5 187.5t44.5 187.5t122.5 128t179 46.5q68 0 128 -24.5t106.5 -67.5t71.5 -100l-106 -43q-18 38 -48.5 67.5t-69.5 45.5t-82 16q-66 0 -117.5 -33t-81 -90.5t-29.5 -132.5t29.5 -133t82 -91t119.5 -33q44 0 82.5 17.5t69 48.5
t48.5 72l106 -43q-25 -59 -71 -104.5t-107 -70.5t-130 -25zM385 778q-27 0 -46.5 19.5t-19.5 46.5t19.5 46t46.5 19t46.5 -19t19.5 -46t-19.5 -46.5t-46.5 -19.5z" />
    <glyph glyph-name="cdotaccent" unicode="&#x10b;" horiz-adv-x="544" 
d="M296 -12q-77 0 -136 33.5t-92.5 92.5t-33.5 136t33.5 136t92 92.5t134.5 33.5q74 0 134 -35.5t89 -101.5l-104 -40q-16 33 -49 53t-75 20q-41 0 -73 -20.5t-50 -56t-18 -81.5t18.5 -81.5t51 -56t73.5 -20.5q42 0 75 21.5t49 58.5l104 -40q-29 -68 -88.5 -106t-134.5 -38z
M294 595q-27 0 -46.5 19.5t-19.5 46.5t19.5 46t46.5 19t46.5 -19t19.5 -46t-19.5 -46.5t-46.5 -19.5z" />
    <glyph glyph-name="Ccaron" unicode="&#x10c;" horiz-adv-x="723" 
d="M386 -12q-101 0 -179.5 46.5t-123 128t-44.5 187.5t44.5 187.5t122.5 128t179 46.5q68 0 128 -24.5t106.5 -67.5t71.5 -100l-106 -43q-18 38 -48.5 67.5t-69.5 45.5t-82 16q-66 0 -117.5 -33t-81 -90.5t-29.5 -132.5t29.5 -133t82 -91t119.5 -33q44 0 82.5 17.5t69 48.5
t48.5 72l106 -43q-25 -59 -71 -104.5t-107 -70.5t-130 -25zM329 748v3l128 132h109l-123 -135h-114zM321 748l-123 135h109l128 -132v-3h-114z" />
    <glyph glyph-name="ccaron" unicode="&#x10d;" horiz-adv-x="544" 
d="M296 -12q-77 0 -136 33.5t-92.5 92.5t-33.5 136t33.5 136t92 92.5t134.5 33.5q74 0 134 -35.5t89 -101.5l-104 -40q-16 33 -49 53t-75 20q-41 0 -73 -20.5t-50 -56t-18 -81.5t18.5 -81.5t51 -56t73.5 -20.5q42 0 75 21.5t49 58.5l104 -40q-29 -68 -88.5 -106t-134.5 -38z
M238 565v3l128 132h109l-123 -135h-114zM230 565l-123 135h109l128 -132v-3h-114z" />
    <glyph glyph-name="Dcaron" unicode="&#x10e;" horiz-adv-x="695" 
d="M83 0v700h220q103 0 182.5 -44.5t125 -123.5t45.5 -182q0 -102 -45.5 -181t-125 -124t-182.5 -45h-220zM199 108h104q49 0 92 18.5t75 51.5t50 77t18 95t-18 95t-50 77t-75 51.5t-92 18.5h-104v-484zM250 748v3l128 132h109l-123 -135h-114zM242 748l-123 135h109
l128 -132v-3h-114z" />
    <glyph glyph-name="dcaron" unicode="&#x10f;" horiz-adv-x="591" 
d="M260 -12q-68 0 -118.5 32.5t-79 91.5t-28.5 138q0 80 28.5 138.5t79 91t118.5 32.5q52 0 92 -22.5t66 -63.5v274h111v-700h-106l-4 76q-25 -42 -65.5 -65t-93.5 -23zM288 90q37 0 66 19.5t45.5 54t18.5 79.5v14q-2 45 -18.5 79.5t-45.5 53.5t-67 19q-40 0 -71.5 -20
t-49 -56t-17.5 -83t18 -83t49.5 -56.5t71.5 -20.5zM550 538l41 161h105l-59 -161h-87z" />
    <glyph glyph-name="Dcroat" unicode="&#x110;" horiz-adv-x="748" 
d="M63 306v87h325v-87h-325zM136 0v700h219q104 0 183.5 -44.5t125 -123.5t45.5 -182q0 -102 -45.5 -181t-125 -124t-183.5 -45h-219zM252 108h103q50 0 92.5 18.5t75 51.5t50 77t17.5 95t-17.5 95t-50 77t-75 51.5t-92.5 18.5h-103v-484z" />
    <glyph glyph-name="dcroat" unicode="&#x111;" horiz-adv-x="591" 
d="M271 560v76h328v-76h-328zM260 -12q-68 0 -118.5 32.5t-79 91.5t-28.5 138q0 80 28.5 138.5t79 91t118.5 32.5q52 0 92 -22.5t66 -63.5v274h111v-700h-106l-4 76q-25 -42 -65.5 -65t-93.5 -23zM288 90q37 0 66 19.5t45.5 54t18.5 79.5v14q-2 45 -18.5 79.5t-45.5 53.5
t-67 19q-40 0 -71.5 -20t-49 -56t-17.5 -83t18 -83t49.5 -56.5t71.5 -20.5z" />
    <glyph glyph-name="Emacron" unicode="&#x112;" horiz-adv-x="590" 
d="M83 0v700h431v-106h-315v-186h278v-104h-278v-198h318v-106h-434zM140 750v97h318v-97h-318z" />
    <glyph glyph-name="emacron" unicode="&#x113;" horiz-adv-x="553" 
d="M285 -12q-73 0 -129.5 33.5t-89 92.5t-32.5 136t33 136t90.5 92.5t131.5 33.5q67 0 121 -34.5t85.5 -99.5t31.5 -155h-377q5 -63 46.5 -99t98.5 -36q46 0 76 20.5t47 53.5l99 -42q-21 -40 -53.5 -70t-77 -46t-101.5 -16zM157 309h249q-3 36 -21 59.5t-44 35.5t-55 12
q-28 0 -56.5 -11.5t-48.5 -35.5t-24 -60zM131 567v97h318v-97h-318z" />
    <glyph glyph-name="Edotaccent" unicode="&#x116;" horiz-adv-x="590" 
d="M83 0v700h431v-106h-315v-186h278v-104h-278v-198h318v-106h-434zM300 778q-27 0 -46.5 19.5t-19.5 46.5t19.5 46t46.5 19t46.5 -19t19.5 -46t-19.5 -46.5t-46.5 -19.5z" />
    <glyph glyph-name="edotaccent" unicode="&#x117;" horiz-adv-x="553" 
d="M285 -12q-73 0 -129.5 33.5t-89 92.5t-32.5 136t33 136t90.5 92.5t131.5 33.5q67 0 121 -34.5t85.5 -99.5t31.5 -155h-377q5 -63 46.5 -99t98.5 -36q46 0 76 20.5t47 53.5l99 -42q-21 -40 -53.5 -70t-77 -46t-101.5 -16zM157 309h249q-3 36 -21 59.5t-44 35.5t-55 12
q-28 0 -56.5 -11.5t-48.5 -35.5t-24 -60zM290 595q-27 0 -46.5 19.5t-19.5 46.5t19.5 46t46.5 19t46.5 -19t19.5 -46t-19.5 -46.5t-46.5 -19.5z" />
    <glyph glyph-name="Eogonek" unicode="&#x118;" horiz-adv-x="590" 
d="M83 0v700h431v-106h-315v-186h278v-104h-278v-198h318v-106h-434zM472 -212q-37 0 -66 11.5t-45.5 34.5t-16.5 57q0 35 26 64.5t59 51.5l88 -7q-31 -22 -55 -48.5t-24 -54.5q0 -12 8.5 -19.5t22.5 -7.5t25 3.5t16 5.5l34 -73q-14 -9 -32 -13.5t-40 -4.5z" />
    <glyph glyph-name="eogonek" unicode="&#x119;" horiz-adv-x="553" 
d="M285 -12q-73 0 -129.5 33.5t-89 92.5t-32.5 136t33 136t90.5 92.5t131.5 33.5q67 0 121 -34.5t85.5 -99.5t31.5 -155h-377q5 -63 46.5 -99t98.5 -36q46 0 76 20.5t47 53.5l99 -42q-21 -40 -53.5 -70t-77 -46t-101.5 -16zM157 309h249q-3 36 -21 59.5t-44 35.5t-55 12
q-28 0 -56.5 -11.5t-48.5 -35.5t-24 -60zM459 -202q-42 0 -74.5 11t-50.5 32.5t-18 52.5q0 34 17 62t48 52.5t70 46.5h22q-27 -25 -41.5 -47.5t-20 -44t-5.5 -41.5t11.5 -31.5t32.5 -11.5q15 0 29 2.5t25 7.5l33 -73q-16 -9 -36 -13.5t-42 -4.5z" />
    <glyph glyph-name="Ecaron" unicode="&#x11a;" horiz-adv-x="590" 
d="M83 0v700h431v-106h-315v-186h278v-104h-278v-198h318v-106h-434zM244 748v3l128 132h109l-123 -135h-114zM236 748l-123 135h109l128 -132v-3h-114z" />
    <glyph glyph-name="ecaron" unicode="&#x11b;" horiz-adv-x="553" 
d="M285 -12q-73 0 -129.5 33.5t-89 92.5t-32.5 136t33 136t90.5 92.5t131.5 33.5q67 0 121 -34.5t85.5 -99.5t31.5 -155h-377q5 -63 46.5 -99t98.5 -36q46 0 76 20.5t47 53.5l99 -42q-21 -40 -53.5 -70t-77 -46t-101.5 -16zM157 309h249q-3 36 -21 59.5t-44 35.5t-55 12
q-28 0 -56.5 -11.5t-48.5 -35.5t-24 -60zM234 565v3l128 132h109l-123 -135h-114zM226 565l-123 135h109l128 -132v-3h-114z" />
    <glyph glyph-name="Gcircumflex" unicode="&#x11c;" horiz-adv-x="750" 
d="M404 -12q-106 0 -188.5 46.5t-129.5 128t-47 186.5q0 107 47 188.5t129.5 128t188.5 46.5q61 0 114.5 -19t96.5 -51.5t70 -75.5l-94 -60q-19 29 -49 52t-65.5 35.5t-72.5 12.5q-72 0 -127.5 -33t-87.5 -90.5t-32 -133.5q0 -74 31.5 -132t88 -91t130.5 -33q57 0 102 23
t71.5 64t28.5 94h-167v94h279v-78q-2 -93 -42.5 -161t-111.5 -104.5t-163 -36.5zM464 760l-136 129v6h121l123 -135h-108zM204 760l123 135h121v-6l-136 -129h-108z" />
    <glyph glyph-name="gcircumflex" unicode="&#x11d;" horiz-adv-x="596" 
d="M277 -213q-53 0 -95.5 9t-71.5 21t-45 23l43 90q14 -7 37.5 -17.5t55.5 -18.5t72 -8q43 0 77 17.5t53 53.5t19 92v50q-26 -42 -67.5 -65.5t-94.5 -23.5q-68 0 -118.5 31t-79 86.5t-28.5 128.5q0 78 28.5 135t79 89t118.5 32q53 0 94.5 -24t67.5 -69v81h112v-448
q0 -85 -32 -144.5t-90 -90t-135 -30.5zM291 105q38 0 66.5 20t44.5 54.5t16 79.5q0 46 -16 80.5t-45 54t-67 19.5q-40 0 -70.5 -19.5t-48 -54t-17.5 -80.5q0 -45 17.5 -79.5t48.5 -54.5t71 -20zM359 577l-136 129v6h121l123 -135h-108zM99 577l123 135h121v-6l-136 -129
h-108z" />
    <glyph glyph-name="Gbreve" unicode="&#x11e;" horiz-adv-x="750" 
d="M404 -12q-106 0 -188.5 46.5t-129.5 128t-47 186.5q0 107 47 188.5t129.5 128t188.5 46.5q61 0 114.5 -19t96.5 -51.5t70 -75.5l-94 -60q-19 29 -49 52t-65.5 35.5t-72.5 12.5q-72 0 -127.5 -33t-87.5 -90.5t-32 -133.5q0 -74 31.5 -132t88 -91t130.5 -33q57 0 102 23
t71.5 64t28.5 94h-167v94h279v-78q-2 -93 -42.5 -161t-111.5 -104.5t-163 -36.5zM388 757q-52 0 -93 18t-64 51t-23 74h105q0 -27 21 -44t54 -17t54 17t21 44h104q0 -41 -22.5 -74t-63 -51t-93.5 -18z" />
    <glyph glyph-name="gbreve" unicode="&#x11f;" horiz-adv-x="596" 
d="M277 -213q-53 0 -95.5 9t-71.5 21t-45 23l43 90q14 -7 37.5 -17.5t55.5 -18.5t72 -8q43 0 77 17.5t53 53.5t19 92v50q-26 -42 -67.5 -65.5t-94.5 -23.5q-68 0 -118.5 31t-79 86.5t-28.5 128.5q0 78 28.5 135t79 89t118.5 32q53 0 94.5 -24t67.5 -69v81h112v-448
q0 -85 -32 -144.5t-90 -90t-135 -30.5zM291 105q38 0 66.5 20t44.5 54.5t16 79.5q0 46 -16 80.5t-45 54t-67 19.5q-40 0 -70.5 -19.5t-48 -54t-17.5 -80.5q0 -45 17.5 -79.5t48.5 -54.5t71 -20zM286 557q-52 0 -93 18t-64 51t-23 74h105q0 -27 21 -44t54 -17t54 17t21 44
h104q0 -41 -22.5 -74t-63 -51t-93.5 -18z" />
    <glyph glyph-name="Gdotaccent" unicode="&#x120;" horiz-adv-x="750" 
d="M404 -12q-106 0 -188.5 46.5t-129.5 128t-47 186.5q0 107 47 188.5t129.5 128t188.5 46.5q61 0 114.5 -19t96.5 -51.5t70 -75.5l-94 -60q-19 29 -49 52t-65.5 35.5t-72.5 12.5q-72 0 -127.5 -33t-87.5 -90.5t-32 -133.5q0 -74 31.5 -132t88 -91t130.5 -33q57 0 102 23
t71.5 64t28.5 94h-167v94h279v-78q-2 -93 -42.5 -161t-111.5 -104.5t-163 -36.5zM388 795q-27 0 -46.5 19.5t-19.5 46.5t19.5 46t46.5 19t46.5 -19t19.5 -46t-19.5 -46.5t-46.5 -19.5z" />
    <glyph glyph-name="gdotaccent" unicode="&#x121;" horiz-adv-x="596" 
d="M277 -213q-53 0 -95.5 9t-71.5 21t-45 23l43 90q14 -7 37.5 -17.5t55.5 -18.5t72 -8q43 0 77 17.5t53 53.5t19 92v50q-26 -42 -67.5 -65.5t-94.5 -23.5q-68 0 -118.5 31t-79 86.5t-28.5 128.5q0 78 28.5 135t79 89t118.5 32q53 0 94.5 -24t67.5 -69v81h112v-448
q0 -85 -32 -144.5t-90 -90t-135 -30.5zM291 105q38 0 66.5 20t44.5 54.5t16 79.5q0 46 -16 80.5t-45 54t-67 19.5q-40 0 -70.5 -19.5t-48 -54t-17.5 -80.5q0 -45 17.5 -79.5t48.5 -54.5t71 -20zM286 595q-27 0 -46.5 19.5t-19.5 46.5t19.5 46t46.5 19t46.5 -19t19.5 -46
t-19.5 -46.5t-46.5 -19.5z" />
    <glyph glyph-name="uni0122" unicode="&#x122;" horiz-adv-x="750" 
d="M404 -12q-106 0 -188.5 46.5t-129.5 128t-47 186.5q0 107 47 188.5t129.5 128t188.5 46.5q61 0 114.5 -19t96.5 -51.5t70 -75.5l-94 -60q-19 29 -49 52t-65.5 35.5t-72.5 12.5q-72 0 -127.5 -33t-87.5 -90.5t-32 -133.5q0 -74 31.5 -132t88 -91t130.5 -33q57 0 102 23
t71.5 64t28.5 94h-167v94h279v-78q-2 -93 -42.5 -161t-111.5 -104.5t-163 -36.5zM309 -200l46 146h113l-71 -146h-88z" />
    <glyph glyph-name="uni0123" unicode="&#x123;" horiz-adv-x="596" 
d="M277 -213q-53 0 -95.5 9t-71.5 21t-45 23l43 90q14 -7 37.5 -17.5t55.5 -18.5t72 -8q43 0 77 17.5t53 53.5t19 92v50q-26 -42 -67.5 -65.5t-94.5 -23.5q-68 0 -118.5 31t-79 86.5t-28.5 128.5q0 78 28.5 135t79 89t118.5 32q53 0 94.5 -24t67.5 -69v81h112v-448
q0 -85 -32 -144.5t-90 -90t-135 -30.5zM291 105q38 0 66.5 20t44.5 54.5t16 79.5q0 46 -16 80.5t-45 54t-67 19.5q-40 0 -70.5 -19.5t-48 -54t-17.5 -80.5q0 -45 17.5 -79.5t48.5 -54.5t71 -20zM401 713l-60 -138h-118l90 138h88z" />
    <glyph glyph-name="Hcircumflex" unicode="&#x124;" horiz-adv-x="750" 
d="M83 0v700h116v-288h352v288h116v-700h-116v306h-352v-306h-116zM451 760l-136 129v6h121l123 -135h-108zM191 760l123 135h121v-6l-136 -129h-108z" />
    <glyph glyph-name="hcircumflex" unicode="&#x125;" horiz-adv-x="565" 
d="M63 0v700h112v-268q25 39 63 59.5t86 20.5q59 0 102 -24t65.5 -74.5t22.5 -131.5v-282h-112v256q0 60 -14 92.5t-38.5 45.5t-56.5 13q-57 1 -87.5 -37t-30.5 -109v-261h-112zM191 777l-136 129v6h121l123 -135h-108zM-69 777l123 135h121v-6l-136 -129h-108z" />
    <glyph glyph-name="Hbar" unicode="&#x126;" horiz-adv-x="750" 
d="M5 502v87h740v-87h-740zM83 0v700h116v-288h352v288h116v-700h-116v306h-352v-306h-116z" />
    <glyph glyph-name="hbar" unicode="&#x127;" horiz-adv-x="565" 
d="M0 560v76h328v-76h-328zM63 0v700h112v-268q25 39 63 59.5t86 20.5q59 0 102 -24t65.5 -74.5t22.5 -131.5v-282h-112v256q0 60 -14 92.5t-38.5 45.5t-56.5 13q-57 1 -87.5 -37t-30.5 -109v-261h-112z" />
    <glyph glyph-name="Imacron" unicode="&#x12a;" horiz-adv-x="282" 
d="M83 0v700h116v-700h-116zM-17 750v97h318v-97h-318z" />
    <glyph glyph-name="imacron" unicode="&#x12b;" horiz-adv-x="250" 
d="M69 0v500h111v-500h-111zM-11 567v97h272v-97h-272z" />
    <glyph glyph-name="Iogonek" unicode="&#x12e;" horiz-adv-x="282" 
d="M83 0v700h116v-700h-116zM154 -212q-37 0 -66 11.5t-45.5 34.5t-16.5 57q0 35 26 64.5t59 51.5l88 -7q-31 -22 -55 -48.5t-24 -54.5q0 -12 8.5 -19.5t22.5 -7.5t25 3.5t16 5.5l34 -73q-14 -9 -32 -13.5t-40 -4.5z" />
    <glyph glyph-name="iogonek" unicode="&#x12f;" horiz-adv-x="250" 
d="M69 0v500h111v-500h-111zM125 595q-27 0 -46.5 19.5t-19.5 46.5t19.5 46t46.5 19t46.5 -19t19.5 -46t-19.5 -46.5t-46.5 -19.5zM135 -212q-37 0 -66 11.5t-45.5 34.5t-16.5 57q0 35 26 64.5t59 51.5l88 -7q-31 -22 -55 -48.5t-24 -54.5q0 -12 8.5 -19.5t22.5 -7.5t25 3.5
t16 5.5l34 -73q-14 -9 -32 -13.5t-40 -4.5z" />
    <glyph glyph-name="Idotaccent" unicode="&#x130;" horiz-adv-x="282" 
d="M83 0v700h116v-700h-116zM142 778q-27 0 -46.5 19.5t-19.5 46.5t19.5 46t46.5 19t46.5 -19t19.5 -46t-19.5 -46.5t-46.5 -19.5z" />
    <glyph glyph-name="dotlessi" unicode="&#x131;" horiz-adv-x="250" 
d="M69 0v500h111v-500h-111z" />
    <glyph glyph-name="IJ" unicode="&#x132;" horiz-adv-x="819" 
d="M83 0v700h116v-700h-116zM500 -13q-46 0 -81.5 14t-61.5 37t-42.5 50t-24.5 53l95 41q18 -41 46.5 -65t69.5 -24q33 0 62.5 15.5t48.5 49.5t19 90v452h116v-489q0 -54 -19.5 -95.5t-53.5 -70.5t-79 -43.5t-95 -14.5z" />
    <glyph glyph-name="ij" unicode="&#x133;" horiz-adv-x="532" 
d="M69 0v500h111v-500h-111zM125 595q-27 0 -46.5 19.5t-19.5 46.5t19.5 46t46.5 19t46.5 -19t19.5 -46t-19.5 -46.5t-46.5 -19.5zM406 593q-28 0 -47.5 20t-19.5 47q0 28 19.5 47.5t47.5 19.5q27 0 47 -19.5t20 -47.5q0 -27 -20 -47t-47 -20zM295 -215q-49 0 -104 29l45 93
q18 -9 33 -13.5t25 -4.5q56 0 56 72v539h111v-545q0 -82 -42.5 -126t-123.5 -44z" />
    <glyph glyph-name="Jcircumflex" unicode="&#x134;" horiz-adv-x="537" 
d="M218 -13q-46 0 -81.5 14t-61.5 37t-42.5 50t-24.5 53l95 41q18 -41 46.5 -65t69.5 -24q33 0 62.5 15.5t48.5 49.5t19 90v452h116v-489q0 -54 -19.5 -95.5t-53.5 -70.5t-79 -43.5t-95 -14.5zM473 761l-136 129v6h121l123 -135h-108zM213 761l123 135h121v-6l-136 -129
h-108z" />
    <glyph glyph-name="jcircumflex" unicode="&#x135;" horiz-adv-x="271" 
d="M45 -215q-49 0 -104 29l45 93q18 -9 33 -13.5t25 -4.5q56 0 56 72v539h111v-545q0 -82 -42.5 -126t-123.5 -44zM229 577l-136 129v6h121l123 -135h-108zM-31 577l123 135h121v-6l-136 -129h-108z" />
    <glyph glyph-name="uni0136" unicode="&#x136;" horiz-adv-x="644" 
d="M83 0v700h114v-295l279 295h149l-298 -315l310 -385h-143l-243 304l-54 -58v-246h-114zM227 -200l46 146h113l-71 -146h-88z" />
    <glyph glyph-name="uni0137" unicode="&#x137;" horiz-adv-x="517" 
d="M62 0v700h112v-402l187 202h135l-188 -207l205 -293h-133l-144 213l-62 -68v-145h-112zM165 -200l46 146h113l-71 -146h-88z" />
    <glyph glyph-name="Lacute" unicode="&#x139;" horiz-adv-x="530" 
d="M83 0v700h116v-594h317v-106h-433zM63 748l116 135h130l-129 -135h-117z" />
    <glyph glyph-name="lacute" unicode="&#x13a;" horiz-adv-x="236" 
d="M62 0v700h112v-700h-112zM40 748l116 135h130l-129 -135h-117z" />
    <glyph glyph-name="uni013B" unicode="&#x13b;" horiz-adv-x="530" 
d="M83 0v700h116v-594h317v-106h-433zM190 -200l46 146h113l-71 -146h-88z" />
    <glyph glyph-name="uni013C" unicode="&#x13c;" horiz-adv-x="236" 
d="M62 0v700h112v-700h-112zM23 -200l46 146h113l-71 -146h-88z" />
    <glyph glyph-name="Lcaron" unicode="&#x13d;" horiz-adv-x="530" 
d="M83 0v700h116v-594h317v-106h-433zM247 597l41 161h105l-59 -161h-87z" />
    <glyph glyph-name="lcaron" unicode="&#x13e;" horiz-adv-x="236" 
d="M62 0v700h112v-700h-112zM196 538l41 161h105l-59 -161h-87z" />
    <glyph glyph-name="Lslash" unicode="&#x141;" horiz-adv-x="530" 
d="M2 247v96l302 149v-97zM83 0v700h116v-594h317v-106h-433z" />
    <glyph glyph-name="lslash" unicode="&#x142;" horiz-adv-x="284" 
d="M11 241v92l262 132v-92zM86 0v700h111v-700h-111z" />
    <glyph glyph-name="Nacute" unicode="&#x143;" horiz-adv-x="774" 
d="M83 0v700h120l372 -506v506h116v-700h-116l-376 512v-512h-116zM305 739l116 135h130l-129 -135h-117z" />
    <glyph glyph-name="nacute" unicode="&#x144;" horiz-adv-x="564" 
d="M62 0v500h105l5 -71q24 40 62.5 61.5t88.5 21.5q60 0 102.5 -24t65 -74.5t22.5 -131.5v-282h-112v256q0 60 -13.5 92.5t-38 45.5t-57.5 13q-56 1 -87 -37t-31 -109v-261h-112zM202 565l116 135h130l-129 -135h-117z" />
    <glyph glyph-name="uni0145" unicode="&#x145;" horiz-adv-x="774" 
d="M83 0v700h120l372 -506v506h116v-700h-116l-376 512v-512h-116zM292 -200l46 146h113l-71 -146h-88z" />
    <glyph glyph-name="uni0146" unicode="&#x146;" horiz-adv-x="564" 
d="M62 0v500h105l5 -71q24 40 62.5 61.5t88.5 21.5q60 0 102.5 -24t65 -74.5t22.5 -131.5v-282h-112v256q0 60 -13.5 92.5t-38 45.5t-57.5 13q-56 1 -87 -37t-31 -109v-261h-112zM185 -200l46 146h113l-71 -146h-88z" />
    <glyph glyph-name="Ncaron" unicode="&#x147;" horiz-adv-x="774" 
d="M83 0v700h120l372 -506v506h116v-700h-116l-376 512v-512h-116zM328 739v3l128 132h109l-123 -135h-114zM320 739l-123 135h109l128 -132v-3h-114z" />
    <glyph glyph-name="ncaron" unicode="&#x148;" horiz-adv-x="564" 
d="M62 0v500h105l5 -71q24 40 62.5 61.5t88.5 21.5q60 0 102.5 -24t65 -74.5t22.5 -131.5v-282h-112v256q0 60 -13.5 92.5t-38 45.5t-57.5 13q-56 1 -87 -37t-31 -109v-261h-112zM224 565v3l128 132h109l-123 -135h-114zM216 565l-123 135h109l128 -132v-3h-114z" />
    <glyph glyph-name="Eng" unicode="&#x14a;" horiz-adv-x="774" 
d="M523 -213q-50 0 -104 28l44 94q19 -9 33.5 -14t24.5 -5q56 0 56 73v324h114v-330q0 -83 -43.5 -126.5t-124.5 -43.5zM83 0v700h120l372 -506v506h116v-700h-116l-376 512v-512h-116z" />
    <glyph glyph-name="eng" unicode="&#x14b;" horiz-adv-x="564" 
d="M346 -215q-49 0 -103 29l44 93q19 -9 34 -13.5t25 -4.5q55 0 55 72v295q0 60 -13.5 92.5t-38 45.5t-57.5 13q-56 1 -87 -37t-31 -109v-261h-112v500h105l5 -71q24 40 62.5 61.5t88.5 21.5q60 0 102.5 -24t65 -74.5t22.5 -131.5v-327q0 -82 -43 -126t-124 -44z" />
    <glyph glyph-name="Omacron" unicode="&#x14c;" horiz-adv-x="783" 
d="M394 -12q-104 0 -184 46t-125.5 128t-45.5 188t45.5 187.5t124.5 128t182 46.5q104 0 183.5 -46.5t124 -128t44.5 -187.5t-44.5 -188t-123 -128t-181.5 -46zM394 94q68 0 120 33t81.5 90.5t29.5 132.5q0 74 -30 132t-82.5 90.5t-121.5 32.5q-68 0 -120.5 -32.5t-83 -90
t-30.5 -132.5t30.5 -132.5t84 -90.5t122.5 -33zM200 750v97h382v-97h-382z" />
    <glyph glyph-name="omacron" unicode="&#x14d;" horiz-adv-x="581" 
d="M292 -12q-75 0 -133.5 33.5t-91.5 92.5t-33 136t32.5 136t90.5 92.5t133 33.5t133 -33.5t90.5 -92.5t32.5 -136t-32 -136t-90 -92.5t-132 -33.5zM292 91q41 0 73 20.5t50 56t18 82.5t-18.5 82.5t-50.5 56t-74 20.5t-74 -20t-50 -56t-18 -83t18.5 -82.5t51 -56t74.5 -20.5
zM129 567v97h318v-97h-318z" />
    <glyph glyph-name="Ohungarumlaut" unicode="&#x150;" horiz-adv-x="783" 
d="M394 -12q-104 0 -184 46t-125.5 128t-45.5 188t45.5 187.5t124.5 128t182 46.5q104 0 183.5 -46.5t124 -128t44.5 -187.5t-44.5 -188t-123 -128t-181.5 -46zM394 94q68 0 120 33t81.5 90.5t29.5 132.5q0 74 -30 132t-82.5 90.5t-121.5 32.5q-68 0 -120.5 -32.5t-83 -90
t-30.5 -132.5t30.5 -132.5t84 -90.5t122.5 -33zM427 748l99 135h124l-114 -135h-109zM231 748l97 135h124l-113 -135h-108z" />
    <glyph glyph-name="ohungarumlaut" unicode="&#x151;" horiz-adv-x="581" 
d="M292 -12q-75 0 -133.5 33.5t-91.5 92.5t-33 136t32.5 136t90.5 92.5t133 33.5t133 -33.5t90.5 -92.5t32.5 -136t-32 -136t-90 -92.5t-132 -33.5zM292 91q41 0 73 20.5t50 56t18 82.5t-18.5 82.5t-50.5 56t-74 20.5t-74 -20t-50 -56t-18 -83t18.5 -82.5t51 -56t74.5 -20.5
zM324 565l99 135h124l-114 -135h-109zM128 565l97 135h124l-113 -135h-108z" />
    <glyph glyph-name="OE" unicode="&#x152;" horiz-adv-x="1121" 
d="M394 -14q-104 0 -184 46.5t-125.5 128.5t-45.5 189t45.5 189t124.5 128.5t182 46.5q94 0 166.5 -44t113 -125t40.5 -193q0 -113 -40.5 -195t-112 -126.5t-164.5 -44.5zM394 94q65 0 114.5 30.5t77.5 87.5t28 138q0 80 -28.5 137t-79 88t-115.5 31q-67 0 -119.5 -33
t-82 -90.5t-29.5 -132.5t29.5 -132.5t83 -90.5t121.5 -33zM614 0v700h431v-106h-315v-186h278v-104h-278v-198h318v-106h-434z" />
    <glyph glyph-name="oe" unicode="&#x153;" horiz-adv-x="993" 
d="M292 -12q-75 0 -133.5 33.5t-91.5 92.5t-33 136t32.5 136t90.5 92.5t133 33.5t133 -33.5t90.5 -92.5t32.5 -136t-32 -136t-90 -92.5t-132 -33.5zM292 91q41 0 73 20.5t50 56t18 82.5t-18.5 82.5t-50.5 56t-74 20.5t-74 -20t-50 -56t-18 -83t18.5 -82.5t51 -56t74.5 -20.5
zM725 -12q-73 0 -129.5 33.5t-89 92.5t-32.5 136t33 136t90.5 92.5t131.5 33.5q67 0 121 -34.5t85.5 -99.5t31.5 -155h-377q5 -63 46.5 -99t98.5 -36q46 0 76 20.5t47 53.5l99 -42q-21 -40 -53.5 -70t-77 -46t-101.5 -16zM597 309h249q-3 36 -21 59.5t-44 35.5t-55 12
q-28 0 -56.5 -11.5t-48.5 -35.5t-24 -60z" />
    <glyph glyph-name="Racute" unicode="&#x154;" horiz-adv-x="637" 
d="M83 0v700h247q72 0 127 -28t86 -77.5t31 -114.5q0 -69 -38 -121.5t-100 -77.5l166 -281h-131l-150 259q-6 -1 -12.5 -1h-13.5h-96v-258h-116zM199 365h136q34 0 60.5 15t43 41t16.5 59q0 50 -36 82t-93 32h-127v-229zM215 748l116 135h130l-129 -135h-117z" />
    <glyph glyph-name="racute" unicode="&#x155;" horiz-adv-x="363" 
d="M62 0v500h112v-91q30 47 78 70t99 23v-107q-46 0 -86.5 -12.5t-65.5 -40.5t-25 -74v-268h-112zM91 565l116 135h130l-129 -135h-117z" />
    <glyph glyph-name="uni0156" unicode="&#x156;" horiz-adv-x="637" 
d="M83 0v700h247q72 0 127 -28t86 -77.5t31 -114.5q0 -69 -38 -121.5t-100 -77.5l166 -281h-131l-150 259q-6 -1 -12.5 -1h-13.5h-96v-258h-116zM199 365h136q34 0 60.5 15t43 41t16.5 59q0 50 -36 82t-93 32h-127v-229zM224 -200l46 146h113l-71 -146h-88z" />
    <glyph glyph-name="uni0157" unicode="&#x157;" horiz-adv-x="363" 
d="M62 0v500h112v-91q30 47 78 70t99 23v-107q-46 0 -86.5 -12.5t-65.5 -40.5t-25 -74v-268h-112zM48 -200l46 146h113l-71 -146h-88z" />
    <glyph glyph-name="Rcaron" unicode="&#x158;" horiz-adv-x="637" 
d="M83 0v700h247q72 0 127 -28t86 -77.5t31 -114.5q0 -69 -38 -121.5t-100 -77.5l166 -281h-131l-150 259q-6 -1 -12.5 -1h-13.5h-96v-258h-116zM199 365h136q34 0 60.5 15t43 41t16.5 59q0 50 -36 82t-93 32h-127v-229zM238 748v3l128 132h109l-123 -135h-114zM230 748
l-123 135h109l128 -132v-3h-114z" />
    <glyph glyph-name="rcaron" unicode="&#x159;" horiz-adv-x="363" 
d="M62 0v500h112v-91q30 47 78 70t99 23v-107q-46 0 -86.5 -12.5t-65.5 -40.5t-25 -74v-268h-112zM114 565v3l128 132h109l-123 -135h-114zM106 565l-123 135h109l128 -132v-3h-114z" />
    <glyph glyph-name="Sacute" unicode="&#x15a;" horiz-adv-x="610" 
d="M313 -12q-55 0 -100.5 13t-80 36t-57 51.5t-31.5 59.5l114 35q13 -37 51 -65t94 -29q65 0 103 27t38 71q0 40 -32 65.5t-86 39.5l-86 22q-49 13 -88.5 38t-62 63t-22.5 90q0 98 64 152.5t183 54.5q67 0 117.5 -20.5t83.5 -56t49 -80.5l-112 -36q-15 40 -52 66t-92 26
q-57 0 -89.5 -27t-32.5 -75q0 -39 25.5 -60.5t69.5 -32.5l86 -21q94 -23 146 -79t52 -124q0 -60 -29 -106t-85.5 -72t-137.5 -26zM235 748l116 135h130l-129 -135h-117z" />
    <glyph glyph-name="sacute" unicode="&#x15b;" horiz-adv-x="477" 
d="M244 -12q-50 0 -92 15t-72 42.5t-46 64.5l97 43q15 -28 44.5 -47t65.5 -19q39 0 62.5 13.5t23.5 37.5q0 23 -18 35.5t-51 20.5l-47 13q-71 18 -111 57.5t-40 90.5q0 75 48.5 116t139.5 41q46 0 84.5 -13.5t66.5 -38t39 -57.5l-93 -42q-10 25 -38 38.5t-62 13.5t-53 -14.5
t-19 -40.5q0 -15 17 -27.5t49 -20.5l59 -14q49 -12 80 -37.5t46 -57t15 -63.5q0 -45 -25.5 -79t-69.5 -52.5t-100 -18.5zM169 565l116 135h130l-129 -135h-117z" />
    <glyph glyph-name="Scircumflex" unicode="&#x15c;" horiz-adv-x="610" 
d="M313 -12q-55 0 -100.5 13t-80 36t-57 51.5t-31.5 59.5l114 35q13 -37 51 -65t94 -29q65 0 103 27t38 71q0 40 -32 65.5t-86 39.5l-86 22q-49 13 -88.5 38t-62 63t-22.5 90q0 98 64 152.5t183 54.5q67 0 117.5 -20.5t83.5 -56t49 -80.5l-112 -36q-15 40 -52 66t-92 26
q-57 0 -89.5 -27t-32.5 -75q0 -39 25.5 -60.5t69.5 -32.5l86 -21q94 -23 146 -79t52 -124q0 -60 -29 -106t-85.5 -72t-137.5 -26zM387 760l-136 129v6h121l123 -135h-108zM127 760l123 135h121v-6l-136 -129h-108z" />
    <glyph glyph-name="scircumflex" unicode="&#x15d;" horiz-adv-x="477" 
d="M244 -12q-50 0 -92 15t-72 42.5t-46 64.5l97 43q15 -28 44.5 -47t65.5 -19q39 0 62.5 13.5t23.5 37.5q0 23 -18 35.5t-51 20.5l-47 13q-71 18 -111 57.5t-40 90.5q0 75 48.5 116t139.5 41q46 0 84.5 -13.5t66.5 -38t39 -57.5l-93 -42q-10 25 -38 38.5t-62 13.5t-53 -14.5
t-19 -40.5q0 -15 17 -27.5t49 -20.5l59 -14q49 -12 80 -37.5t46 -57t15 -63.5q0 -45 -25.5 -79t-69.5 -52.5t-100 -18.5zM321 577l-136 129v6h121l123 -135h-108zM61 577l123 135h121v-6l-136 -129h-108z" />
    <glyph glyph-name="Scedilla" unicode="&#x15e;" horiz-adv-x="610" 
d="M313 -12q-55 0 -100.5 13t-80 36t-57 51.5t-31.5 59.5l114 35q13 -37 51 -65t94 -29q65 0 103 27t38 71q0 40 -32 65.5t-86 39.5l-86 22q-49 13 -88.5 38t-62 63t-22.5 90q0 98 64 152.5t183 54.5q67 0 117.5 -20.5t83.5 -56t49 -80.5l-112 -36q-15 40 -52 66t-92 26
q-57 0 -89.5 -27t-32.5 -75q0 -39 25.5 -60.5t69.5 -32.5l86 -21q94 -23 146 -79t52 -124q0 -60 -29 -106t-85.5 -72t-137.5 -26zM274 -210q-21 0 -44.5 6t-50.5 22l19 57q16 -7 31.5 -13t27.5 -6q18 0 31 6.5t13 24.5q0 22 -17 32.5t-52 14.5l29 72l68 -8l-13 -28
q36 -13 52.5 -35.5t16.5 -49.5q0 -42 -27.5 -68.5t-83.5 -26.5z" />
    <glyph glyph-name="scedilla" unicode="&#x15f;" horiz-adv-x="477" 
d="M244 -12q-50 0 -92 15t-72 42.5t-46 64.5l97 43q15 -28 44.5 -47t65.5 -19q39 0 62.5 13.5t23.5 37.5q0 23 -18 35.5t-51 20.5l-47 13q-71 18 -111 57.5t-40 90.5q0 75 48.5 116t139.5 41q46 0 84.5 -13.5t66.5 -38t39 -57.5l-93 -42q-10 25 -38 38.5t-62 13.5t-53 -14.5
t-19 -40.5q0 -15 17 -27.5t49 -20.5l59 -14q49 -12 80 -37.5t46 -57t15 -63.5q0 -45 -25.5 -79t-69.5 -52.5t-100 -18.5zM206 -210q-21 0 -44.5 6t-50.5 22l19 57q16 -7 31.5 -13t27.5 -6q18 0 31 6.5t13 24.5q0 22 -17 32.5t-52 14.5l29 72l68 -8l-13 -28
q36 -13 52.5 -35.5t16.5 -49.5q0 -42 -27.5 -68.5t-83.5 -26.5z" />
    <glyph glyph-name="Scaron" unicode="&#x160;" horiz-adv-x="610" 
d="M313 -12q-55 0 -100.5 13t-80 36t-57 51.5t-31.5 59.5l114 35q13 -37 51 -65t94 -29q65 0 103 27t38 71q0 40 -32 65.5t-86 39.5l-86 22q-49 13 -88.5 38t-62 63t-22.5 90q0 98 64 152.5t183 54.5q67 0 117.5 -20.5t83.5 -56t49 -80.5l-112 -36q-15 40 -52 66t-92 26
q-57 0 -89.5 -27t-32.5 -75q0 -39 25.5 -60.5t69.5 -32.5l86 -21q94 -23 146 -79t52 -124q0 -60 -29 -106t-85.5 -72t-137.5 -26zM258 748v3l128 132h109l-123 -135h-114zM250 748l-123 135h109l128 -132v-3h-114z" />
    <glyph glyph-name="scaron" unicode="&#x161;" horiz-adv-x="477" 
d="M244 -12q-50 0 -92 15t-72 42.5t-46 64.5l97 43q15 -28 44.5 -47t65.5 -19q39 0 62.5 13.5t23.5 37.5q0 23 -18 35.5t-51 20.5l-47 13q-71 18 -111 57.5t-40 90.5q0 75 48.5 116t139.5 41q46 0 84.5 -13.5t66.5 -38t39 -57.5l-93 -42q-10 25 -38 38.5t-62 13.5t-53 -14.5
t-19 -40.5q0 -15 17 -27.5t49 -20.5l59 -14q49 -12 80 -37.5t46 -57t15 -63.5q0 -45 -25.5 -79t-69.5 -52.5t-100 -18.5zM192 565v3l128 132h109l-123 -135h-114zM184 565l-123 135h109l128 -132v-3h-114z" />
    <glyph glyph-name="Tcaron" unicode="&#x164;" horiz-adv-x="572" 
d="M228 0v594h-215v106h546v-106h-215v-594h-116zM230 748v3l128 132h109l-123 -135h-114zM222 748l-123 135h109l128 -132v-3h-114z" />
    <glyph glyph-name="tcaron" unicode="&#x165;" horiz-adv-x="405" 
d="M261 -12q-79 0 -120.5 39.5t-41.5 113.5v263h-83v96h83v156h111v-156h135v-96h-135v-242q0 -35 16.5 -53t48.5 -18q10 0 22 4t27 15l41 -85q-26 -18 -52 -27.5t-52 -9.5zM246 565l42 149h105l-59 -149h-88z" />
    <glyph glyph-name="Umacron" unicode="&#x16a;" horiz-adv-x="705" 
d="M350 -14q-83 0 -145.5 33.5t-97 94.5t-34.5 142v444h116v-444q0 -49 20.5 -85.5t57.5 -57t85 -20.5q49 0 86.5 20.5t57.5 57t20 85.5v444h116v-444q0 -81 -34.5 -142t-98 -94.5t-149.5 -33.5zM194 750v97h318v-97h-318z" />
    <glyph glyph-name="umacron" unicode="&#x16b;" horiz-adv-x="564" 
d="M241 -12q-59 0 -101.5 24t-65.5 75t-23 131v282h112v-256q0 -59 14 -92t38.5 -46t56.5 -13q57 -1 88 37t31 109v261h111v-500h-105l-5 71q-24 -40 -62.5 -61.5t-88.5 -21.5zM122 567v97h318v-97h-318z" />
    <glyph glyph-name="Ubreve" unicode="&#x16c;" horiz-adv-x="705" 
d="M350 -14q-83 0 -145.5 33.5t-97 94.5t-34.5 142v444h116v-444q0 -49 20.5 -85.5t57.5 -57t85 -20.5q49 0 86.5 20.5t57.5 57t20 85.5v444h116v-444q0 -81 -34.5 -142t-98 -94.5t-149.5 -33.5zM353 740q-52 0 -93 18t-64 51t-23 74h105q0 -27 21 -44t54 -17t54 17t21 44
h104q0 -41 -22.5 -74t-63 -51t-93.5 -18z" />
    <glyph glyph-name="ubreve" unicode="&#x16d;" horiz-adv-x="564" 
d="M241 -12q-59 0 -101.5 24t-65.5 75t-23 131v282h112v-256q0 -59 14 -92t38.5 -46t56.5 -13q57 -1 88 37t31 109v261h111v-500h-105l-5 71q-24 -40 -62.5 -61.5t-88.5 -21.5zM281 557q-52 0 -93 18t-64 51t-23 74h105q0 -27 21 -44t54 -17t54 17t21 44h104
q0 -41 -22.5 -74t-63 -51t-93.5 -18z" />
    <glyph glyph-name="Uring" unicode="&#x16e;" horiz-adv-x="705" 
d="M350 -14q-83 0 -145.5 33.5t-97 94.5t-34.5 142v444h116v-444q0 -49 20.5 -85.5t57.5 -57t85 -20.5q49 0 86.5 20.5t57.5 57t20 85.5v444h116v-444q0 -81 -34.5 -142t-98 -94.5t-149.5 -33.5zM353 728q-29 0 -54 14t-40 37.5t-15 52.5q0 30 15 53.5t39.5 37.5t54.5 14
t54.5 -14t39.5 -37.5t15 -53.5q0 -29 -15 -52.5t-39.5 -37.5t-54.5 -14zM353 796q35 0 35 36q0 37 -35 37q-36 0 -36 -37q0 -36 36 -36z" />
    <glyph glyph-name="uring" unicode="&#x16f;" horiz-adv-x="564" 
d="M241 -12q-59 0 -101.5 24t-65.5 75t-23 131v282h112v-256q0 -59 14 -92t38.5 -46t56.5 -13q57 -1 88 37t31 109v261h111v-500h-105l-5 71q-24 -40 -62.5 -61.5t-88.5 -21.5zM281 545q-29 0 -54 14t-40 37.5t-15 52.5q0 30 15 53.5t39.5 37.5t54.5 14t54.5 -14t39.5 -37.5
t15 -53.5q0 -29 -15 -52.5t-39.5 -37.5t-54.5 -14zM281 613q35 0 35 36q0 37 -35 37q-36 0 -36 -37q0 -36 36 -36z" />
    <glyph glyph-name="Uhungarumlaut" unicode="&#x170;" horiz-adv-x="705" 
d="M350 -14q-83 0 -145.5 33.5t-97 94.5t-34.5 142v444h116v-444q0 -49 20.5 -85.5t57.5 -57t85 -20.5q49 0 86.5 20.5t57.5 57t20 85.5v444h116v-444q0 -81 -34.5 -142t-98 -94.5t-149.5 -33.5zM388 748l99 135h124l-114 -135h-109zM192 748l97 135h124l-113 -135h-108z
" />
    <glyph glyph-name="uhungarumlaut" unicode="&#x171;" horiz-adv-x="564" 
d="M241 -12q-59 0 -101.5 24t-65.5 75t-23 131v282h112v-256q0 -59 14 -92t38.5 -46t56.5 -13q57 -1 88 37t31 109v261h111v-500h-105l-5 71q-24 -40 -62.5 -61.5t-88.5 -21.5zM316 565l99 135h124l-114 -135h-109zM120 565l97 135h124l-113 -135h-108z" />
    <glyph glyph-name="Uogonek" unicode="&#x172;" horiz-adv-x="705" 
d="M350 -14q-83 0 -145.5 33.5t-97 94.5t-34.5 142v444h116v-444q0 -49 20.5 -85.5t57.5 -57t85 -20.5q49 0 86.5 20.5t57.5 57t20 85.5v444h116v-444q0 -81 -34.5 -142t-98 -94.5t-149.5 -33.5zM535 -202q-42 0 -74.5 11t-50.5 32.5t-18 52.5q0 34 17 62t48 52.5t70 46.5
h22q-27 -25 -41.5 -47.5t-20 -44t-5.5 -41.5t11.5 -31.5t32.5 -11.5q15 0 29 2.5t25 7.5l33 -73q-16 -9 -36 -13.5t-42 -4.5z" />
    <glyph glyph-name="uogonek" unicode="&#x173;" horiz-adv-x="564" 
d="M241 -12q-59 0 -101.5 24t-65.5 75t-23 131v282h112v-256q0 -59 14 -92t38.5 -46t56.5 -13q57 -1 88 37t31 109v261h111v-500h-105l-5 71q-24 -40 -62.5 -61.5t-88.5 -21.5zM457 -212q-37 0 -66 11.5t-45.5 34.5t-16.5 57q0 35 26 64.5t59 51.5l88 -7q-31 -22 -55 -48.5
t-24 -54.5q0 -12 8.5 -19.5t22.5 -7.5t25 3.5t16 5.5l34 -73q-14 -9 -32 -13.5t-40 -4.5z" />
    <glyph glyph-name="Wcircumflex" unicode="&#x174;" horiz-adv-x="975" 
d="M218 0l-209 700h117l155 -522l149 522h115l148 -517l155 517h118l-212 -700h-123l-144 516l-146 -516h-123zM560 747l-136 129v6h121l123 -135h-108zM300 747l123 135h121v-6l-136 -129h-108z" />
    <glyph glyph-name="wcircumflex" unicode="&#x175;" horiz-adv-x="815" 
d="M180 0l-170 500h113l115 -348l115 348h110l114 -343l115 343h113l-170 -500h-111l-116 359l-117 -359h-111zM481 577l-136 129v6h121l123 -135h-108zM221 577l123 135h121v-6l-136 -129h-108z" />
    <glyph glyph-name="Ycircumflex" unicode="&#x176;" horiz-adv-x="630" 
d="M257 0v294l-249 406h133l174 -289l174 289h133l-249 -405v-295h-116zM388 747l-136 129v6h121l123 -135h-108zM128 747l123 135h121v-6l-136 -129h-108z" />
    <glyph glyph-name="ycircumflex" unicode="&#x177;" horiz-adv-x="556" 
d="M141 -212q-24 0 -53.5 9t-56.5 23l42 91q19 -9 35 -14.5t26 -5.5q24 0 40.5 12.5t26.5 36.5l27 64l-222 496h122l152 -368l149 368h122l-232 -553q-21 -48 -42.5 -84t-53.5 -55.5t-82 -19.5zM351 577l-136 129v6h121l123 -135h-108zM91 577l123 135h121v-6l-136 -129
h-108z" />
    <glyph glyph-name="Ydieresis" unicode="&#x178;" horiz-adv-x="630" 
d="M257 0v294l-249 406h133l174 -289l174 289h133l-249 -405v-295h-116zM442 774q-24 0 -42 18t-18 42q0 25 18 43t42 18q25 0 43 -18t18 -43q0 -24 -18 -42t-43 -18zM188 774q-24 0 -42 18t-18 42q0 26 18 43.5t42 17.5q25 0 43 -17.5t18 -43.5q0 -24 -18 -42t-43 -18z" />
    <glyph glyph-name="Zacute" unicode="&#x179;" horiz-adv-x="635" 
d="M41 0v108l404 484h-401v108h550v-108l-404 -484h401v-108h-550zM240 748l116 135h130l-129 -135h-117z" />
    <glyph glyph-name="zacute" unicode="&#x17a;" horiz-adv-x="483" 
d="M37 0v83l266 323h-266v94h407v-82l-266 -325h268v-93h-409zM162 565l116 135h130l-129 -135h-117z" />
    <glyph glyph-name="Zdotaccent" unicode="&#x17b;" horiz-adv-x="635" 
d="M41 0v108l404 484h-401v108h550v-108l-404 -484h401v-108h-550zM319 778q-27 0 -46.5 19.5t-19.5 46.5t19.5 46t46.5 19t46.5 -19t19.5 -46t-19.5 -46.5t-46.5 -19.5z" />
    <glyph glyph-name="zdotaccent" unicode="&#x17c;" horiz-adv-x="483" 
d="M37 0v83l266 323h-266v94h407v-82l-266 -325h268v-93h-409zM241 595q-27 0 -46.5 19.5t-19.5 46.5t19.5 46t46.5 19t46.5 -19t19.5 -46t-19.5 -46.5t-46.5 -19.5z" />
    <glyph glyph-name="Zcaron" unicode="&#x17d;" horiz-adv-x="635" 
d="M41 0v108l404 484h-401v108h550v-108l-404 -484h401v-108h-550zM263 748v3l128 132h109l-123 -135h-114zM255 748l-123 135h109l128 -132v-3h-114z" />
    <glyph glyph-name="zcaron" unicode="&#x17e;" horiz-adv-x="483" 
d="M37 0v83l266 323h-266v94h407v-82l-266 -325h268v-93h-409zM185 565v3l128 132h109l-123 -135h-114zM177 565l-123 135h109l128 -132v-3h-114z" />
    <glyph glyph-name="uni01CD" unicode="&#x1cd;" horiz-adv-x="699" 
d="M9 0l279 700h123l280 -700h-123l-69 172h-299l-68 -172h-123zM239 275h221l-110 280zM294 748v3l128 132h109l-123 -135h-114zM286 748l-123 135h109l128 -132v-3h-114z" />
    <glyph glyph-name="uni01CE" unicode="&#x1ce;" horiz-adv-x="520" 
d="M223 -12q-90 0 -139.5 40t-49.5 113q0 78 52.5 119t146.5 41h127q-6 55 -31 84t-74 29q-36 0 -63 -15t-46 -47l-98 36q16 33 42.5 61.5t67 45.5t97.5 17q73 0 122 -28.5t72.5 -81.5t23.5 -128l-3 -274h-103l-3 61q-20 -35 -55.5 -54t-85.5 -19zM237 82q37 0 65.5 16.5
t44 44.5t15.5 62v10h-93q-67 0 -94 -18.5t-27 -52.5q0 -29 23.5 -45.5t65.5 -16.5zM196 565v3l128 132h109l-123 -135h-114zM188 565l-123 135h109l128 -132v-3h-114z" />
    <glyph glyph-name="uni0218" unicode="&#x218;" horiz-adv-x="610" 
d="M313 -12q-55 0 -100.5 13t-80 36t-57 51.5t-31.5 59.5l114 35q13 -37 51 -65t94 -29q65 0 103 27t38 71q0 40 -32 65.5t-86 39.5l-86 22q-49 13 -88.5 38t-62 63t-22.5 90q0 98 64 152.5t183 54.5q67 0 117.5 -20.5t83.5 -56t49 -80.5l-112 -36q-15 40 -52 66t-92 26
q-57 0 -89.5 -27t-32.5 -75q0 -39 25.5 -60.5t69.5 -32.5l86 -21q94 -23 146 -79t52 -124q0 -60 -29 -106t-85.5 -72t-137.5 -26zM218 -200l46 146h113l-71 -146h-88z" />
    <glyph glyph-name="uni0219" unicode="&#x219;" horiz-adv-x="477" 
d="M244 -12q-50 0 -92 15t-72 42.5t-46 64.5l97 43q15 -28 44.5 -47t65.5 -19q39 0 62.5 13.5t23.5 37.5q0 23 -18 35.5t-51 20.5l-47 13q-71 18 -111 57.5t-40 90.5q0 75 48.5 116t139.5 41q46 0 84.5 -13.5t66.5 -38t39 -57.5l-93 -42q-10 25 -38 38.5t-62 13.5t-53 -14.5
t-19 -40.5q0 -15 17 -27.5t49 -20.5l59 -14q49 -12 80 -37.5t46 -57t15 -63.5q0 -45 -25.5 -79t-69.5 -52.5t-100 -18.5zM149 -200l46 146h113l-71 -146h-88z" />
    <glyph glyph-name="uni021A" unicode="&#x21a;" horiz-adv-x="572" 
d="M228 0v594h-215v106h546v-106h-215v-594h-116zM191 -200l46 146h113l-71 -146h-88z" />
    <glyph glyph-name="uni021B" unicode="&#x21b;" horiz-adv-x="393" 
d="M261 -12q-79 0 -120.5 39.5t-41.5 113.5v263h-83v96h83v156h111v-156h135v-96h-135v-242q0 -35 16.5 -53t48.5 -18q10 0 22 4t27 15l41 -85q-26 -18 -52 -27.5t-52 -9.5zM120 -200l46 146h113l-71 -146h-88z" />
    <glyph glyph-name="uni0237" unicode="&#x237;" horiz-adv-x="271" 
d="M45 -215q-49 0 -104 29l45 93q18 -9 33 -13.5t25 -4.5q56 0 56 72v539h111v-545q0 -82 -42.5 -126t-123.5 -44z" />
    <glyph glyph-name="circumflex" unicode="&#x2c6;" horiz-adv-x="388" 
d="M270 577l-136 129v6h121l123 -135h-108zM10 577l123 135h121v-6l-136 -129h-108z" />
    <glyph glyph-name="caron" unicode="&#x2c7;" horiz-adv-x="388" 
d="M137 565v3l128 132h109l-123 -135h-114zM129 565l-123 135h109l128 -132v-3h-114z" />
    <glyph glyph-name="breve" unicode="&#x2d8;" horiz-adv-x="359" 
d="M180 557q-52 0 -93 18t-64 51t-23 74h105q0 -27 21 -44t54 -17t54 17t21 44h104q0 -41 -22.5 -74t-63 -51t-93.5 -18z" />
    <glyph glyph-name="dotaccent" unicode="&#x2d9;" horiz-adv-x="132" 
d="M66 595q-27 0 -46.5 19.5t-19.5 46.5t19.5 46t46.5 19t46.5 -19t19.5 -46t-19.5 -46.5t-46.5 -19.5z" />
    <glyph glyph-name="ring" unicode="&#x2da;" horiz-adv-x="415" 
d="M221 545q-29 0 -54 14t-40 37.5t-15 52.5q0 30 15 53.5t40 37.5t54 14q30 0 54.5 -14t39.5 -37.5t15 -53.5q0 -29 -15 -52.5t-39.5 -37.5t-54.5 -14zM221 613q35 0 35 36q0 37 -35 37t-35 -37q0 -36 35 -36z" />
    <glyph glyph-name="ogonek" unicode="&#x2db;" horiz-adv-x="248" 
d="M159 -212q-37 0 -66 11.5t-45.5 34.5t-16.5 57q0 35 26 64.5t59 51.5l88 -7q-31 -22 -55 -48.5t-24 -54.5q0 -12 8.5 -19.5t22.5 -7.5t25 3.5t16 5.5l34 -73q-14 -9 -32 -13.5t-40 -4.5z" />
    <glyph glyph-name="tilde" unicode="&#x2dc;" horiz-adv-x="373" 
d="M251 556q-31 0 -50 11t-30 25t-21 25t-25 11q-13 0 -21.5 -8t-14.5 -30h-79q4 35 18 61t38 40t57 14q32 0 50.5 -11t30.5 -25t22.5 -25t24.5 -11q16 0 23 10.5t10 28.5h79q-6 -50 -33.5 -83t-78.5 -33z" />
    <glyph glyph-name="hungarumlaut" unicode="&#x2dd;" horiz-adv-x="435" 
d="M208 565l99 135h124l-114 -135h-109zM12 565l97 135h124l-113 -135h-108z" />
    <glyph glyph-name="gravecomb" unicode="&#x300;" horiz-adv-x="0" 
d="M230 565l-130 136h130l117 -136h-117z" />
    <glyph glyph-name="acutecomb" unicode="&#x301;" horiz-adv-x="0" 
d="M236 565l116 135h130l-129 -135h-117z" />
    <glyph glyph-name="uni0302" unicode="&#x302;" horiz-adv-x="0" 
d="M264 577l-136 129v6h121l123 -135h-108zM4 577l123 135h121v-6l-136 -129h-108z" />
    <glyph glyph-name="tildecomb" unicode="&#x303;" horiz-adv-x="0" 
d="M338 556q-31 0 -50 11t-30 25t-21 25t-25 11q-13 0 -21.5 -8t-14.5 -30h-79q4 35 18 61t38 40t57 14q32 0 50.5 -11t30.5 -25t22.5 -25t24.5 -11q16 0 23 10.5t10 28.5h79q-6 -50 -33.5 -83t-78.5 -33z" />
    <glyph glyph-name="uni0304" unicode="&#x304;" horiz-adv-x="0" 
d="M-9 567v97h318v-97h-318z" />
    <glyph glyph-name="uni0306" unicode="&#x306;" horiz-adv-x="0" 
d="M180 557q-52 0 -93 18t-64 51t-23 74h105q0 -27 21 -44t54 -17t54 17t21 44h104q0 -41 -22.5 -74t-63 -51t-93.5 -18z" />
    <glyph glyph-name="uni0307" unicode="&#x307;" horiz-adv-x="0" 
d="M66 595q-27 0 -46.5 19.5t-19.5 46.5t19.5 46t46.5 19t46.5 -19t19.5 -46t-19.5 -46.5t-46.5 -19.5z" />
    <glyph glyph-name="uni0308" unicode="&#x308;" horiz-adv-x="0" 
d="M324 604q-24 0 -42 18t-18 42q0 25 18 43t42 18q25 0 43 -18t18 -43q0 -24 -18 -42t-43 -18zM70 604q-24 0 -42 18t-18 42q0 26 18 43.5t42 17.5q25 0 43 -17.5t18 -43.5q0 -24 -18 -42t-43 -18z" />
    <glyph glyph-name="uni030A" unicode="&#x30a;" horiz-adv-x="0" 
d="M155 545q-29 0 -54 14t-40 37.5t-15 52.5q0 30 15 53.5t39.5 37.5t54.5 14t54.5 -14t39.5 -37.5t15 -53.5q0 -29 -15 -52.5t-39.5 -37.5t-54.5 -14zM155 613q35 0 35 36q0 37 -35 37q-36 0 -36 -37q0 -36 36 -36z" />
    <glyph glyph-name="uni030B" unicode="&#x30b;" horiz-adv-x="0" 
d="M198 565l99 135h124l-114 -135h-109zM2 565l97 135h124l-113 -135h-108z" />
    <glyph glyph-name="uni030C" unicode="&#x30c;" horiz-adv-x="0" 
d="M131 565v3l128 132h109l-123 -135h-114zM123 565l-123 135h109l128 -132v-3h-114z" />
    <glyph glyph-name="uni0312" unicode="&#x312;" horiz-adv-x="0" 
d="M178 713l-60 -138h-118l90 138h88z" />
    <glyph glyph-name="uni0326" unicode="&#x326;" horiz-adv-x="0" 
d="M16 -200l46 146h113l-71 -146h-88z" />
    <glyph glyph-name="uni0327" unicode="&#x327;" horiz-adv-x="0" 
d="M264 -210q-21 0 -44.5 6t-50.5 22l19 57q16 -7 31.5 -13t27.5 -6q18 0 31 6.5t13 24.5q0 22 -17 32.5t-52 14.5l29 72l68 -8l-13 -28q36 -13 52.5 -35.5t16.5 -49.5q0 -42 -27.5 -68.5t-83.5 -26.5z" />
    <glyph glyph-name="uni0328" unicode="&#x328;" horiz-adv-x="0" 
d="M159 -212q-37 0 -66 11.5t-45.5 34.5t-16.5 57q0 35 26 64.5t59 51.5l88 -7q-31 -22 -55 -48.5t-24 -54.5q0 -12 8.5 -19.5t22.5 -7.5t25 3.5t16 5.5l34 -73q-14 -9 -32 -13.5t-40 -4.5z" />
    <glyph glyph-name="Wgrave" unicode="&#x1e80;" horiz-adv-x="975" 
d="M218 0l-209 700h117l155 -522l149 522h115l148 -517l155 517h118l-212 -700h-123l-144 516l-146 -516h-123zM477 735l-130 136h130l117 -136h-117z" />
    <glyph glyph-name="wgrave" unicode="&#x1e81;" horiz-adv-x="815" 
d="M180 0l-170 500h113l115 -348l115 348h110l114 -343l115 343h113l-170 -500h-111l-116 359l-117 -359h-111zM398 565l-130 136h130l117 -136h-117z" />
    <glyph glyph-name="Wacute" unicode="&#x1e82;" horiz-adv-x="975" 
d="M218 0l-209 700h117l155 -522l149 522h115l148 -517l155 517h118l-212 -700h-123l-144 516l-146 -516h-123zM409 735l116 135h130l-129 -135h-117z" />
    <glyph glyph-name="wacute" unicode="&#x1e83;" horiz-adv-x="815" 
d="M180 0l-170 500h113l115 -348l115 348h110l114 -343l115 343h113l-170 -500h-111l-116 359l-117 -359h-111zM330 565l116 135h130l-129 -135h-117z" />
    <glyph glyph-name="Wdieresis" unicode="&#x1e84;" horiz-adv-x="975" 
d="M218 0l-209 700h117l155 -522l149 522h115l148 -517l155 517h118l-212 -700h-123l-144 516l-146 -516h-123zM614 774q-24 0 -42 18t-18 42q0 25 18 43t42 18q25 0 43 -18t18 -43q0 -24 -18 -42t-43 -18zM360 774q-24 0 -42 18t-18 42q0 26 18 43.5t42 17.5q25 0 43 -17.5
t18 -43.5q0 -24 -18 -42t-43 -18z" />
    <glyph glyph-name="wdieresis" unicode="&#x1e85;" horiz-adv-x="815" 
d="M180 0l-170 500h113l115 -348l115 348h110l114 -343l115 343h113l-170 -500h-111l-116 359l-117 -359h-111zM535 604q-24 0 -42 18t-18 42q0 25 18 43t42 18q25 0 43 -18t18 -43q0 -24 -18 -42t-43 -18zM281 604q-24 0 -42 18t-18 42q0 26 18 43.5t42 17.5q25 0 43 -17.5
t18 -43.5q0 -24 -18 -42t-43 -18z" />
    <glyph glyph-name="uni1E9E" unicode="&#x1e9e;" horiz-adv-x="613" 
d="M355 -12q-19 0 -51.5 7.5t-61.5 29.5l39 96q10 -5 26.5 -14.5t45.5 -9.5q50 0 78 28.5t28 79.5q0 48 -29 74t-89 26h-61v89l144 172q-21 17 -50.5 29.5t-72.5 12.5q-50 0 -75 -26t-25 -71v-511h-118v541q0 81 58 126t169 45q66 0 116.5 -20t86.5 -49t59 -55l-164 -205
q80 -12 122.5 -61.5t42.5 -130.5q0 -96 -55.5 -149.5t-162.5 -53.5z" />
    <glyph glyph-name="Ygrave" unicode="&#x1ef2;" horiz-adv-x="630" 
d="M257 0v294l-249 406h133l174 -289l174 289h133l-249 -405v-295h-116zM305 735l-130 136h130l117 -136h-117z" />
    <glyph glyph-name="ygrave" unicode="&#x1ef3;" horiz-adv-x="556" 
d="M141 -212q-24 0 -53.5 9t-56.5 23l42 91q19 -9 35 -14.5t26 -5.5q24 0 40.5 12.5t26.5 36.5l27 64l-222 496h122l152 -368l149 368h122l-232 -553q-21 -48 -42.5 -84t-53.5 -55.5t-82 -19.5zM268 565l-130 136h130l117 -136h-117z" />
    <glyph glyph-name="endash" unicode="&#x2013;" horiz-adv-x="550" 
d="M0 249v97h550v-97h-550z" />
    <glyph glyph-name="emdash" unicode="&#x2014;" horiz-adv-x="1100" 
d="M0 249v97h1100v-97h-1100z" />
    <glyph glyph-name="quoteleft" unicode="&#x2018;" horiz-adv-x="204" 
d="M189 700l-60 -227h-118l90 227h88z" />
    <glyph glyph-name="quoteright" unicode="&#x2019;" horiz-adv-x="204" 
d="M14 473l60 227h118l-90 -227h-88z" />
    <glyph glyph-name="quotesinglbase" unicode="&#x201a;" horiz-adv-x="235" 
d="M33 -115l60 227h118l-90 -227h-88z" />
    <glyph glyph-name="quotedblleft" unicode="&#x201c;" horiz-adv-x="381" 
d="M189 701l-60 -226h-118l90 226h88zM366 701l-59 -226h-118l90 226h87z" />
    <glyph glyph-name="quotedblright" unicode="&#x201d;" horiz-adv-x="381" 
d="M192 473l60 227h118l-90 -227h-88zM15 473l60 227h117l-89 -227h-88z" />
    <glyph glyph-name="quotedblbase" unicode="&#x201e;" horiz-adv-x="370" 
d="M189 -115l60 227h117l-89 -227h-88zM11 -115l60 227h118l-90 -227h-88z" />
    <glyph glyph-name="dagger" unicode="&#x2020;" horiz-adv-x="485" 
d="M186 0l22 454l-18 246h105l-18 -246l22 -454h-113zM27 403v103l215 -18l214 18v-103l-214 18z" />
    <glyph glyph-name="daggerdbl" unicode="&#x2021;" horiz-adv-x="485" 
d="M184 -200l23 244l-14 206l14 204l-18 246h105l-18 -246l13 -204l-13 -206l22 -244h-114zM29 -5v99l215 -15l214 15v-99l-214 16zM27 405v99l214 -16l214 16v-99l-214 16z" />
    <glyph glyph-name="bullet" unicode="&#x2022;" horiz-adv-x="476" 
d="M238 171q-32 0 -57.5 15.5t-41 41t-15.5 57.5q0 31 15.5 56.5t41 40.5t57.5 15q31 0 57 -15t41.5 -40.5t15.5 -56.5q0 -32 -15.5 -57.5t-41.5 -41t-57 -15.5z" />
    <glyph glyph-name="ellipsis" unicode="&#x2026;" horiz-adv-x="671" 
d="M116 -14q-29 0 -49.5 20.5t-20.5 49.5t20.5 50t49.5 21t50 -21t21 -50t-21 -49.5t-50 -20.5zM336 -14q-29 0 -49.5 20.5t-20.5 49.5t20.5 50t49.5 21t50 -21t21 -50t-21 -49.5t-50 -20.5zM555 -14q-29 0 -49.5 20.5t-20.5 49.5t20.5 50t49.5 21t50 -21t21 -50t-21 -49.5
t-50 -20.5z" />
    <glyph glyph-name="guilsinglleft" unicode="&#x2039;" horiz-adv-x="384" 
d="M198 96l-150 202l150 202h130l-147 -202l147 -202h-130z" />
    <glyph glyph-name="guilsinglright" unicode="&#x203a;" horiz-adv-x="384" 
d="M185 96h-129l146 202l-146 202h129l151 -202z" />
    <glyph glyph-name="fraction" unicode="&#x2044;" horiz-adv-x="220" 
d="M-176 0l481 700h92l-481 -700h-92z" />
    <glyph glyph-name="uni2070" unicode="&#x2070;" horiz-adv-x="406" 
d="M204 373q-52 0 -91.5 27.5t-62 76.5t-22.5 113q0 65 22 113.5t62 76t91 27.5q52 0 91 -27.5t61.5 -76t22.5 -113.5q0 -64 -22.5 -113t-61.5 -76.5t-90 -27.5zM204 454q39 0 63.5 38t24.5 98q0 61 -25 99.5t-64 38.5q-38 0 -61.5 -38.5t-23.5 -99.5q0 -60 24 -98t62 -38z
" />
    <glyph glyph-name="uni2074" unicode="&#x2074;" horiz-adv-x="394" 
d="M87 496l-64 34l185 270l52 -49zM23 458v72l49 4h301v-76h-350zM218 380v372l-10 48h94v-420h-84z" />
    <glyph glyph-name="uni2075" unicode="&#x2075;" horiz-adv-x="367" 
d="M187 373q-30 0 -61 10t-55.5 30t-35.5 48l83 23q11 -18 27.5 -26.5t36.5 -8.5q29 0 47 18t18 46t-17.5 47t-47.5 19q-17 0 -31 -7.5t-23 -20.5l-79 18l26 231h240v-81h-227l-13 78h88l-35 -237l-45 9q7 13 24.5 31.5t45 32t63.5 12.5q51 0 86.5 -35.5t35.5 -90.5
q0 -65 -42.5 -105.5t-108.5 -40.5z" />
    <glyph glyph-name="uni2076" unicode="&#x2076;" horiz-adv-x="360" 
d="M186 373q-56 0 -91 26t-51 70.5t-16 99.5q0 47 10 90t30.5 76.5t54 52.5t79.5 19q33 0 65.5 -9.5t57.5 -27.5l-43 -65q-19 13 -40.5 19t-38.5 6q-43 0 -68.5 -39t-23.5 -123l-18 11q14 32 42.5 51.5t66.5 19.5q40 0 71 -19t48.5 -51t17.5 -72q0 -58 -42 -96.5t-111 -38.5
zM187 448q27 0 45.5 18.5t18.5 46.5t-18.5 47t-45.5 19q-28 0 -46.5 -19t-18.5 -47q0 -29 18.5 -47t46.5 -18z" />
    <glyph glyph-name="uni2077" unicode="&#x2077;" horiz-adv-x="346" 
d="M64 380l165 346l96 10l-162 -356h-99zM25 719v81h300v-64l-92 -17h-208z" />
    <glyph glyph-name="uni2078" unicode="&#x2078;" horiz-adv-x="386" 
d="M193 373q-77 0 -118.5 32t-41.5 84q0 56 41 91.5t119 35.5q77 0 118.5 -35.5t41.5 -91.5q0 -52 -41.5 -84t-118.5 -32zM193 446q30 0 49.5 15.5t19.5 39.5q0 27 -19.5 43.5t-49.5 16.5q-31 0 -50 -16.5t-19 -43.5q0 -24 19 -39.5t50 -15.5zM193 630q26 0 43 15t17 38
t-17 38.5t-43 15.5q-27 0 -43.5 -15.5t-16.5 -38.5t16.5 -38t43.5 -15zM193 582q-70 0 -108.5 31t-38.5 80q0 50 38.5 82t108.5 32t108 -32t38 -82q0 -49 -38.5 -80t-107.5 -31z" />
    <glyph glyph-name="uni2079" unicode="&#x2079;" horiz-adv-x="360" 
d="M158 373q-33 0 -65 9.5t-58 27.5l43 64q19 -12 41 -18t37 -6q43 0 68.5 38t24.5 124l18 -11q-14 -32 -42 -52t-67 -20q-40 0 -71 19t-48.5 51.5t-17.5 72.5q0 58 41.5 96.5t111.5 38.5q56 0 90.5 -26.5t50.5 -70.5t16 -99q0 -47 -9.5 -89.5t-30.5 -76t-53.5 -53
t-79.5 -19.5zM173 601q28 0 46.5 19.5t18.5 46.5q0 28 -18.5 46.5t-46.5 18.5t-46 -18.5t-18 -46.5t18.5 -47t45.5 -19z" />
    <glyph glyph-name="uni2080" unicode="&#x2080;" horiz-adv-x="406" 
d="M204 -106q-52 0 -91.5 27.5t-62 76.5t-22.5 113q0 65 22 113.5t62 76t91 27.5q52 0 91 -27.5t61.5 -76t22.5 -113.5q0 -64 -22.5 -113t-61.5 -76.5t-90 -27.5zM204 -25q39 0 63.5 38t24.5 98q0 61 -25 99.5t-64 38.5q-38 0 -61.5 -38.5t-23.5 -99.5q0 -60 24 -98t62 -38z
" />
    <glyph glyph-name="uni2081" unicode="&#x2081;" horiz-adv-x="281" 
d="M124 -100v373l9 47h76v-420h-85zM36 182v80q22 -1 48.5 16.5t48.5 41.5l56 -54q-38 -42 -75 -64.5t-78 -19.5z" />
    <glyph glyph-name="uni2082" unicode="&#x2082;" horiz-adv-x="365" 
d="M121 -48l-87 12q0 18 11.5 38.5t31.5 42.5t46 40l59 41q18 13 35 31.5t17 37.5q0 22 -16 36.5t-46 14.5q-25 0 -41 -14.5t-22 -34.5l-91 15q6 31 26.5 57t53 42t73.5 16q71 0 112 -36.5t41 -94.5q0 -41 -22 -70.5t-60 -56.5l-57 -41q-14 -10 -28 -24t-24 -27.5t-12 -24.5
zM34 -100v64l66 14h229v-78h-295z" />
    <glyph glyph-name="uni2083" unicode="&#x2083;" horiz-adv-x="354" 
d="M182 -106q-58 0 -98.5 26t-50.5 71l83 22q7 -15 20 -29t40 -14q28 0 44 15.5t16 40.5q0 15 -7.5 28t-25.5 20.5t-50 7.5h-28v58h25q47 0 87 -15t64 -43t24 -67t-20 -65.5t-52.5 -41t-70.5 -14.5zM125 99v55h28q39 0 57.5 13t18.5 37q0 20 -14.5 34t-38.5 14
q-18 0 -34 -9.5t-24 -32.5l-82 21q8 32 29.5 53.5t51 32.5t61.5 11q40 0 71.5 -14.5t50 -40.5t18.5 -60q0 -38 -24.5 -63.5t-63 -38t-80.5 -12.5h-25z" />
    <glyph glyph-name="uni2084" unicode="&#x2084;" horiz-adv-x="394" 
d="M87 16l-64 34l185 270l52 -49zM23 -22v72l49 4h301v-76h-350zM218 -100v372l-10 48h94v-420h-84z" />
    <glyph glyph-name="uni2085" unicode="&#x2085;" horiz-adv-x="367" 
d="M187 -106q-30 0 -61 10t-55.5 30t-35.5 48l83 23q11 -18 27.5 -26.5t36.5 -8.5q29 0 47 18t18 46t-17.5 47t-47.5 19q-17 0 -31 -7.5t-23 -20.5l-79 18l26 231h240v-81h-227l-13 78h88l-35 -237l-45 9q7 13 24.5 31.5t45 32t63.5 12.5q51 0 86.5 -35.5t35.5 -90.5
q0 -65 -42.5 -105.5t-108.5 -40.5z" />
    <glyph glyph-name="uni2086" unicode="&#x2086;" horiz-adv-x="360" 
d="M186 -106q-56 0 -91 26t-51 70.5t-16 99.5q0 47 10 90t30.5 76.5t54 52.5t79.5 19q33 0 65.5 -9.5t57.5 -27.5l-43 -65q-19 13 -40.5 19t-38.5 6q-43 0 -68.5 -39t-23.5 -123l-18 11q14 32 42.5 51.5t66.5 19.5q40 0 71 -19t48.5 -51t17.5 -72q0 -58 -42 -96.5
t-111 -38.5zM187 -31q27 0 45.5 18.5t18.5 46.5t-18.5 47t-45.5 19q-28 0 -46.5 -19t-18.5 -47q0 -29 18.5 -47t46.5 -18z" />
    <glyph glyph-name="uni2087" unicode="&#x2087;" horiz-adv-x="346" 
d="M64 -100l165 346l96 10l-162 -356h-99zM25 239v81h300v-64l-92 -17h-208z" />
    <glyph glyph-name="uni2088" unicode="&#x2088;" horiz-adv-x="386" 
d="M193 -106q-77 0 -118.5 32t-41.5 84q0 56 41 91.5t119 35.5q77 0 118.5 -35.5t41.5 -91.5q0 -52 -41.5 -84t-118.5 -32zM193 -33q30 0 49.5 15.5t19.5 39.5q0 27 -19.5 43.5t-49.5 16.5q-31 0 -50 -16.5t-19 -43.5q0 -24 19 -39.5t50 -15.5zM193 151q26 0 43 15t17 38
t-17 38.5t-43 15.5q-27 0 -43.5 -15.5t-16.5 -38.5t16.5 -38t43.5 -15zM193 103q-70 0 -108.5 31t-38.5 80q0 50 38.5 82t108.5 32t108 -32t38 -82q0 -49 -38.5 -80t-107.5 -31z" />
    <glyph glyph-name="uni2089" unicode="&#x2089;" horiz-adv-x="360" 
d="M158 -106q-33 0 -65 9.5t-58 27.5l43 64q19 -12 41 -18t37 -6q43 0 68.5 38t24.5 124l18 -11q-14 -32 -42 -52t-67 -20q-40 0 -71 19t-48.5 51.5t-17.5 72.5q0 58 41.5 96.5t111.5 38.5q56 0 90.5 -26.5t50.5 -70.5t16 -99q0 -47 -9.5 -89.5t-30.5 -76t-53.5 -53
t-79.5 -19.5zM173 122q28 0 46.5 19.5t18.5 46.5q0 28 -18.5 46.5t-46.5 18.5t-46 -18.5t-18 -46.5t18.5 -47t45.5 -19z" />
    <glyph glyph-name="Euro" unicode="&#x20ac;" horiz-adv-x="682" 
d="M392 -12q-88 0 -156 46.5t-106 128t-38 187.5t38 187.5t105.5 128t154.5 46.5q58 0 109.5 -23.5t90 -66t60.5 -98.5l-101 -43q-15 37 -39.5 65t-55 44t-64.5 16q-52 0 -93 -33t-64 -90.5t-23 -132.5t23.5 -133t64.5 -90.5t95 -32.5q35 0 65.5 17t54 46.5t38.5 68.5
l101 -43q-21 -57 -60 -101.5t-90 -69t-110 -24.5zM16 256v65h448v-65h-448zM16 379v65h448v-65h-448z" />
    <glyph glyph-name="uni20B9" unicode="&#x20b9;" horiz-adv-x="609" 
d="M336 0l-253 248v86h137q44 0 78 24t45 65h-260v88h259q-10 41 -42 65.5t-78 24.5h-139v99h453l-3 -89h-119q20 -20 33.5 -45t17.5 -55h71l-3 -88h-66q-8 -48 -36 -86.5t-70.5 -62.5t-95.5 -31l-28 -1l250 -242h-151z" />
    <glyph glyph-name="trademark" unicode="&#x2122;" horiz-adv-x="870" 
d="M612 377l-125 184v-281h-89v420h97l118 -174l117 174h97v-420h-89v282zM133 280v339h-124v81h337v-81h-125v-339h-88z" />
    <glyph glyph-name="oneeighth" unicode="&#x215b;" horiz-adv-x="887" 
d="M124 280v373l9 47h76v-420h-85zM36 562v80q22 -1 48.5 16.5t48.5 41.5l56 -54q-38 -42 -75 -64.5t-78 -19.5zM105 0l481 700h92l-481 -700h-92zM694 -6q-77 0 -118.5 32t-41.5 84q0 56 41 91.5t119 35.5q77 0 118.5 -35.5t41.5 -91.5q0 -52 -41.5 -84t-118.5 -32zM694 67
q30 0 49.5 15.5t19.5 39.5q0 27 -19.5 43.5t-49.5 16.5q-31 0 -50 -16.5t-19 -43.5q0 -24 19 -39.5t50 -15.5zM694 251q26 0 43 15t17 38t-17 38.5t-43 15.5q-27 0 -43.5 -15.5t-16.5 -38.5t16.5 -38t43.5 -15zM694 203q-70 0 -108.5 31t-38.5 80q0 50 38.5 82t108.5 32
t108 -32t38 -82q0 -49 -38.5 -80t-107.5 -31z" />
    <glyph glyph-name="threeeighths" unicode="&#x215c;" horiz-adv-x="961" 
d="M182 273q-58 0 -98.5 26t-50.5 71l83 22q7 -15 20 -29t40 -14q28 0 44 15.5t16 40.5q0 15 -7.5 28t-25.5 20.5t-50 7.5h-28v58h25q47 0 87 -15t64 -43t24 -67t-20 -65.5t-52.5 -41t-70.5 -14.5zM125 478v55h28q39 0 57.5 13t18.5 37q0 20 -14.5 34t-38.5 14
q-18 0 -34 -9.5t-24 -32.5l-82 21q8 32 29.5 53.5t51 32.5t61.5 11q40 0 71.5 -14.5t50 -40.5t18.5 -60q0 -38 -24.5 -63.5t-63 -38t-80.5 -12.5h-25zM178 0l481 700h92l-481 -700h-92zM768 -6q-77 0 -118.5 32t-41.5 84q0 56 41 91.5t119 35.5q77 0 118.5 -35.5t41.5 -91.5
q0 -52 -41.5 -84t-118.5 -32zM768 67q30 0 49.5 15.5t19.5 39.5q0 27 -19.5 43.5t-49.5 16.5q-31 0 -50 -16.5t-19 -43.5q0 -24 19 -39.5t50 -15.5zM768 251q26 0 43 15t17 38t-17 38.5t-43 15.5q-27 0 -43.5 -15.5t-16.5 -38.5t16.5 -38t43.5 -15zM768 203q-70 0 -108.5 31
t-38.5 80q0 50 38.5 82t108.5 32t108 -32t38 -82q0 -49 -38.5 -80t-107.5 -31z" />
    <glyph glyph-name="fiveeighths" unicode="&#x215d;" horiz-adv-x="974" 
d="M187 273q-30 0 -61 10t-55.5 30t-35.5 48l83 23q11 -18 27.5 -26.5t36.5 -8.5q29 0 47 18t18 46t-17.5 47t-47.5 19q-17 0 -31 -7.5t-23 -20.5l-79 18l26 231h240v-81h-227l-13 78h88l-35 -237l-45 9q7 13 24.5 31.5t45 32t63.5 12.5q51 0 86.5 -35.5t35.5 -90.5
q0 -65 -42.5 -105.5t-108.5 -40.5zM191 0l481 700h92l-481 -700h-92zM781 -6q-77 0 -118.5 32t-41.5 84q0 56 41 91.5t119 35.5q77 0 118.5 -35.5t41.5 -91.5q0 -52 -41.5 -84t-118.5 -32zM781 67q30 0 49.5 15.5t19.5 39.5q0 27 -19.5 43.5t-49.5 16.5q-31 0 -50 -16.5
t-19 -43.5q0 -24 19 -39.5t50 -15.5zM781 251q26 0 43 15t17 38t-17 38.5t-43 15.5q-27 0 -43.5 -15.5t-16.5 -38.5t16.5 -38t43.5 -15zM781 203q-70 0 -108.5 31t-38.5 80q0 50 38.5 82t108.5 32t108 -32t38 -82q0 -49 -38.5 -80t-107.5 -31z" />
    <glyph glyph-name="seveneighths" unicode="&#x215e;" horiz-adv-x="921" 
d="M64 280l165 346l96 10l-162 -356h-99zM25 619v81h300v-64l-92 -17h-208zM138 0l481 700h92l-481 -700h-92zM728 -6q-77 0 -118.5 32t-41.5 84q0 56 41 91.5t119 35.5q77 0 118.5 -35.5t41.5 -91.5q0 -52 -41.5 -84t-118.5 -32zM728 67q30 0 49.5 15.5t19.5 39.5
q0 27 -19.5 43.5t-49.5 16.5q-31 0 -50 -16.5t-19 -43.5q0 -24 19 -39.5t50 -15.5zM728 251q26 0 43 15t17 38t-17 38.5t-43 15.5q-27 0 -43.5 -15.5t-16.5 -38.5t16.5 -38t43.5 -15zM728 203q-70 0 -108.5 31t-38.5 80q0 50 38.5 82t108.5 32t108 -32t38 -82
q0 -49 -38.5 -80t-107.5 -31z" />
    <glyph glyph-name="arrowleft" unicode="&#x2190;" horiz-adv-x="748" 
d="M151 247l-93 51l291 271l66 -70zM682 250h-550v97h550v-97zM352 29l-294 269l92 52l267 -250z" />
    <glyph glyph-name="arrowup" unicode="&#x2191;" horiz-adv-x="720" 
d="M412 619l-251 -264l-71 66l272 291zM409 0h-97v638h97v-638zM630 418l-71 -65l-250 267l53 92z" />
    <glyph glyph-name="arrowright" unicode="&#x2192;" horiz-adv-x="748" 
d="M597 247l-264 251l66 71l291 -272zM66 249v97h550v-97h-550zM396 29l-65 71l267 250l92 -53z" />
    <glyph glyph-name="arrowdown" unicode="&#x2193;" horiz-adv-x="720" 
d="M412 81l-50 -93l-272 291l71 66zM409 700v-638h-97v638h97zM630 282l-268 -294l-53 92l250 267z" />
    <glyph glyph-name="uni2196" unicode="&#x2196;" horiz-adv-x="683" 
d="M600 267l-69 -69l-430 430l69 69zM180 318h-97v397l96 -31zM480 618l-366 1l-31 96h397v-97z" />
    <glyph glyph-name="uni2197" unicode="&#x2197;" horiz-adv-x="683" 
d="M151 183l-68 68l430 430l68 -68zM203 603v97h397l-32 -96zM503 303l1 366l96 31v-397h-97z" />
    <glyph glyph-name="uni2198" unicode="&#x2198;" horiz-adv-x="683" 
d="M83 440l68 69l430 -431l-68 -68zM503 389h97v-398l-96 32zM203 88h365l32 -97h-397v97z" />
    <glyph glyph-name="uni2199" unicode="&#x2199;" horiz-adv-x="683" 
d="M532 517l68 -68l-430 -430l-68 68zM480 97v-97h-397l32 96zM180 397l-1 -366l-96 -31v397h97z" />
    <glyph glyph-name="minus" unicode="&#x2212;" 
d="M122 251v94h384v-94h-384z" />
    <glyph glyph-name="uni2215" unicode="&#x2215;" 
d="M32 0l482 700h83l-482 -700h-83z" />
    <glyph glyph-name="notequal" unicode="&#x2260;" 
d="M146 72l253 512h93l-253 -512h-93zM114 383v92h400v-92h-400zM114 183v92h400v-92h-400z" />
    <glyph glyph-name="lessequal" unicode="&#x2264;" 
d="M491 0h-361v81h361v-81zM491 122l-361 156v92l361 154v-96l-245 -104l245 -106v-96z" />
    <glyph glyph-name="greaterequal" unicode="&#x2265;" 
d="M137 0v81h361v-81h-361zM137 122v96l245 106l-245 104v96l361 -154v-92z" />
    <glyph glyph-name="uni004A0301" horiz-adv-x="537" 
d="M218 -13q-46 0 -81.5 14t-61.5 37t-42.5 50t-24.5 53l95 41q18 -41 46.5 -65t69.5 -24q33 0 62.5 15.5t48.5 49.5t19 90v452h116v-489q0 -54 -19.5 -95.5t-53.5 -70.5t-79 -43.5t-95 -14.5zM326 735l116 135h130l-129 -135h-117z" />
    <glyph glyph-name="I.ss02" horiz-adv-x="407" 
d="M41 0v106h105v488h-105v106h325v-106h-104v-488h104v-106h-325z" />
    <glyph glyph-name="IJ.ss02" horiz-adv-x="945" 
d="M41 0v106h105v488h-105v106h325v-106h-104v-488h104v-106h-325zM625 -13q-46 0 -81.5 14t-61.5 37t-42.5 50t-24.5 53l95 41q18 -41 46.5 -65t69.5 -24q33 0 62.5 15.5t48.5 49.5t19 90v452h116v-489q0 -54 -19.5 -95.5t-53.5 -70.5t-79 -43.5t-95 -14.5z" />
    <glyph glyph-name="Iacute.ss02" horiz-adv-x="407" 
d="M41 0v106h105v488h-105v106h325v-106h-104v-488h104v-106h-325zM127 745l115 128h130l-129 -128h-116z" />
    <glyph glyph-name="Icircumflex.ss02" horiz-adv-x="407" 
d="M41 0v106h105v488h-105v106h325v-106h-104v-488h104v-106h-325zM278 760l-136 129v6h121l123 -135h-108zM18 760l123 135h121v-6l-136 -129h-108z" />
    <glyph glyph-name="Idieresis.ss02" horiz-adv-x="407" 
d="M287 787q-24 0 -42.5 18t-18.5 42q0 25 18.5 43t42.5 18q25 0 42.5 -18t17.5 -43q0 -24 -17.5 -42t-42.5 -18zM132 787q-25 0 -43 18t-18 42q0 25 18 43t43 18t43 -18t18 -43q0 -24 -18 -42t-43 -18zM41 0v106h105v488h-105v106h325v-106h-104v-488h104v-106h-325z" />
    <glyph glyph-name="Idotaccent.ss02" horiz-adv-x="407" 
d="M41 0v106h105v488h-105v106h325v-106h-104v-488h104v-106h-325zM205 778q-27 0 -46.5 19.5t-19.5 46.5t19.5 46t46.5 19t46.5 -19t19.5 -46t-19.5 -46.5t-46.5 -19.5z" />
    <glyph glyph-name="Igrave.ss02" horiz-adv-x="407" 
d="M41 0v106h105v488h-105v106h325v-106h-104v-488h104v-106h-325zM195 748l-130 136h130l117 -136h-117z" />
    <glyph glyph-name="Imacron.ss02" horiz-adv-x="407" 
d="M41 0v106h105v488h-105v106h325v-106h-104v-488h104v-106h-325zM46 750v97h318v-97h-318z" />
    <glyph glyph-name="Iogonek.ss02" horiz-adv-x="407" 
d="M41 0v106h105v488h-105v106h325v-106h-104v-488h104v-106h-325zM217 -212q-37 0 -66 11.5t-45.5 34.5t-16.5 57q0 35 26 64.5t59 51.5l88 -7q-31 -22 -55 -48.5t-24 -54.5q0 -12 8.5 -19.5t22.5 -7.5t25 3.5t16 5.5l34 -73q-14 -9 -32 -13.5t-40 -4.5z" />
    <glyph glyph-name="i.loclTRK" horiz-adv-x="250" 
d="M69 0v500h111v-500h-111zM125 595q-27 0 -46.5 19.5t-19.5 46.5t19.5 46t46.5 19t46.5 -19t19.5 -46t-19.5 -46.5t-46.5 -19.5z" />
    <glyph glyph-name="uni006A0301" horiz-adv-x="271" 
d="M45 -215q-49 0 -104 29l45 93q18 -9 33 -13.5t25 -4.5q56 0 56 72v539h111v-545q0 -82 -42.5 -126t-123.5 -44zM77 565l116 135h130l-129 -135h-117z" />
    <glyph glyph-name="a.ss01" horiz-adv-x="591" 
d="M260 -12q-68 0 -118.5 32.5t-79 91.5t-28.5 138q0 80 28.5 138.5t79 91t118.5 32.5q52 0 92 -22.5t66 -63.5v74h111v-500h-106l-4 76q-25 -42 -65.5 -65t-93.5 -23zM288 90q37 0 66 19.5t45.5 54t18.5 79.5v14q-2 45 -18.5 79.5t-45.5 53.5t-67 19q-40 0 -71 -20
t-48.5 -56t-18.5 -83q1 -47 18.5 -83t49 -56.5t71.5 -20.5z" />
    <glyph glyph-name="aacute.ss01" horiz-adv-x="591" 
d="M260 -12q-68 0 -118.5 32.5t-79 91.5t-28.5 138q0 80 28.5 138.5t79 91t118.5 32.5q52 0 92 -22.5t66 -63.5v74h111v-500h-106l-4 76q-25 -42 -65.5 -65t-93.5 -23zM288 90q37 0 66 19.5t45.5 54t18.5 79.5v14q-2 45 -18.5 79.5t-45.5 53.5t-67 19q-40 0 -71 -20
t-48.5 -56t-18.5 -83q1 -47 18.5 -83t49 -56.5t71.5 -20.5zM206 565l116 135h130l-129 -135h-117z" />
    <glyph glyph-name="abreve.ss01" horiz-adv-x="591" 
d="M260 -12q-68 0 -118.5 32.5t-79 91.5t-28.5 138q0 80 28.5 138.5t79 91t118.5 32.5q52 0 92 -22.5t66 -63.5v74h111v-500h-106l-4 76q-25 -42 -65.5 -65t-93.5 -23zM288 90q37 0 66 19.5t45.5 54t18.5 79.5v14q-2 45 -18.5 79.5t-45.5 53.5t-67 19q-40 0 -71 -20
t-48.5 -56t-18.5 -83q1 -47 18.5 -83t49 -56.5t71.5 -20.5zM285 557q-52 0 -93 18t-64 51t-23 74h105q0 -27 21 -44t54 -17t54 17t21 44h104q0 -41 -22.5 -74t-63 -51t-93.5 -18z" />
    <glyph glyph-name="uni01CE.ss01" horiz-adv-x="591" 
d="M260 -12q-68 0 -118.5 32.5t-79 91.5t-28.5 138q0 80 28.5 138.5t79 91t118.5 32.5q52 0 92 -22.5t66 -63.5v74h111v-500h-106l-4 76q-25 -42 -65.5 -65t-93.5 -23zM288 90q37 0 66 19.5t45.5 54t18.5 79.5v14q-2 45 -18.5 79.5t-45.5 53.5t-67 19q-40 0 -71 -20
t-48.5 -56t-18.5 -83q1 -47 18.5 -83t49 -56.5t71.5 -20.5zM229 565v3l128 132h109l-123 -135h-114zM221 565l-123 135h109l128 -132v-3h-114z" />
    <glyph glyph-name="acircumflex.ss01" horiz-adv-x="591" 
d="M260 -12q-68 0 -118.5 32.5t-79 91.5t-28.5 138q0 80 28.5 138.5t79 91t118.5 32.5q52 0 92 -22.5t66 -63.5v74h111v-500h-106l-4 76q-25 -42 -65.5 -65t-93.5 -23zM288 90q37 0 66 19.5t45.5 54t18.5 79.5v14q-2 45 -18.5 79.5t-45.5 53.5t-67 19q-40 0 -71 -20
t-48.5 -56t-18.5 -83q1 -47 18.5 -83t49 -56.5t71.5 -20.5zM358 577l-136 129v6h121l123 -135h-108zM98 577l123 135h121v-6l-136 -129h-108z" />
    <glyph glyph-name="adieresis.ss01" horiz-adv-x="591" 
d="M260 -12q-68 0 -118.5 32.5t-79 91.5t-28.5 138q0 80 28.5 138.5t79 91t118.5 32.5q52 0 92 -22.5t66 -63.5v74h111v-500h-106l-4 76q-25 -42 -65.5 -65t-93.5 -23zM288 90q37 0 66 19.5t45.5 54t18.5 79.5v14q-2 45 -18.5 79.5t-45.5 53.5t-67 19q-40 0 -71 -20
t-48.5 -56t-18.5 -83q1 -47 18.5 -83t49 -56.5t71.5 -20.5zM411 604q-24 0 -42 18t-18 42q0 25 18 43t42 18q25 0 43 -18t18 -43q0 -24 -18 -42t-43 -18zM157 604q-24 0 -42 18t-18 42q0 26 18 43.5t42 17.5q25 0 43 -17.5t18 -43.5q0 -24 -18 -42t-43 -18z" />
    <glyph glyph-name="agrave.ss01" horiz-adv-x="591" 
d="M260 -12q-68 0 -118.5 32.5t-79 91.5t-28.5 138q0 80 28.5 138.5t79 91t118.5 32.5q52 0 92 -22.5t66 -63.5v74h111v-500h-106l-4 76q-25 -42 -65.5 -65t-93.5 -23zM288 90q37 0 66 19.5t45.5 54t18.5 79.5v14q-2 45 -18.5 79.5t-45.5 53.5t-67 19q-40 0 -71 -20
t-48.5 -56t-18.5 -83q1 -47 18.5 -83t49 -56.5t71.5 -20.5zM275 565l-130 136h130l117 -136h-117z" />
    <glyph glyph-name="amacron.ss01" horiz-adv-x="591" 
d="M260 -12q-68 0 -118.5 32.5t-79 91.5t-28.5 138q0 80 28.5 138.5t79 91t118.5 32.5q52 0 92 -22.5t66 -63.5v74h111v-500h-106l-4 76q-25 -42 -65.5 -65t-93.5 -23zM288 90q37 0 66 19.5t45.5 54t18.5 79.5v14q-2 45 -18.5 79.5t-45.5 53.5t-67 19q-40 0 -71 -20
t-48.5 -56t-18.5 -83q1 -47 18.5 -83t49 -56.5t71.5 -20.5zM126 567v97h318v-97h-318z" />
    <glyph glyph-name="aogonek.ss01" horiz-adv-x="591" 
d="M260 -12q-68 0 -118.5 32.5t-79 91.5t-28.5 138q0 80 28.5 138.5t79 91t118.5 32.5q52 0 92 -22.5t66 -63.5v74h111v-500h-106l-4 76q-25 -42 -65.5 -65t-93.5 -23zM288 90q37 0 66 19.5t45.5 54t18.5 79.5v14q-2 45 -18.5 79.5t-45.5 53.5t-67 19q-40 0 -71 -20
t-48.5 -56t-18.5 -83q1 -47 18.5 -83t49 -56.5t71.5 -20.5zM484 -212q-37 0 -66 11.5t-45.5 34.5t-16.5 57q0 35 26 64.5t59 51.5l88 -7q-31 -22 -55 -48.5t-24 -54.5q0 -12 8.5 -19.5t22.5 -7.5t25 3.5t16 5.5l34 -73q-14 -9 -32 -13.5t-40 -4.5z" />
    <glyph glyph-name="aring.ss01" horiz-adv-x="591" 
d="M260 -12q-68 0 -118.5 32.5t-79 91.5t-28.5 138q0 80 28.5 138.5t79 91t118.5 32.5q52 0 92 -22.5t66 -63.5v74h111v-500h-106l-4 76q-25 -42 -65.5 -65t-93.5 -23zM288 90q37 0 66 19.5t45.5 54t18.5 79.5v14q-2 45 -18.5 79.5t-45.5 53.5t-67 19q-40 0 -71 -20
t-48.5 -56t-18.5 -83q1 -47 18.5 -83t49 -56.5t71.5 -20.5zM284 545q-29 0 -54 14t-40 37.5t-15 52.5q0 30 15 53.5t39.5 37.5t54.5 14t54.5 -14t39.5 -37.5t15 -53.5q0 -29 -15 -52.5t-39.5 -37.5t-54.5 -14zM284 613q35 0 35 36q0 37 -35 37q-36 0 -36 -37q0 -36 36 -36z
" />
    <glyph glyph-name="atilde.ss01" horiz-adv-x="591" 
d="M260 -12q-68 0 -118.5 32.5t-79 91.5t-28.5 138q0 80 28.5 138.5t79 91t118.5 32.5q52 0 92 -22.5t66 -63.5v74h111v-500h-106l-4 76q-25 -42 -65.5 -65t-93.5 -23zM288 90q37 0 66 19.5t45.5 54t18.5 79.5v14q-2 45 -18.5 79.5t-45.5 53.5t-67 19q-40 0 -71 -20
t-48.5 -56t-18.5 -83q1 -47 18.5 -83t49 -56.5t71.5 -20.5zM366 556q-31 0 -50 11t-30 25t-21 25t-25 11q-13 0 -21.5 -8t-14.5 -30h-79q4 35 18 61t38 40t57 14q32 0 50.5 -11t30.5 -25t22.5 -25t24.5 -11q16 0 23 10.5t10 28.5h79q-6 -50 -33.5 -83t-78.5 -33z" />
    <glyph glyph-name="l.ss02" horiz-adv-x="306" 
d="M209 -12q-71 0 -109 39.5t-38 113.5v559h112v-538q0 -34 13 -51.5t37 -17.5q9 0 19 3.5t25 13.5l40 -85q-24 -18 -49 -27.5t-50 -9.5z" />
    <glyph glyph-name="lacute.ss02" horiz-adv-x="306" 
d="M209 -12q-71 0 -109 39.5t-38 113.5v559h112v-538q0 -34 13 -51.5t37 -17.5q9 0 19 3.5t25 13.5l40 -85q-24 -18 -49 -27.5t-50 -9.5zM40 748l116 135h130l-129 -135h-117z" />
    <glyph glyph-name="lcaron.ss02" horiz-adv-x="306" 
d="M209 -12q-71 0 -109 39.5t-38 113.5v559h112v-538q0 -34 13 -51.5t37 -17.5q9 0 19 3.5t25 13.5l40 -85q-24 -18 -49 -27.5t-50 -9.5zM196 538l41 161h105l-59 -161h-87z" />
    <glyph glyph-name="uni013C.ss02" horiz-adv-x="306" 
d="M209 -12q-71 0 -109 39.5t-38 113.5v559h112v-538q0 -34 13 -51.5t37 -17.5q9 0 19 3.5t25 13.5l40 -85q-24 -18 -49 -27.5t-50 -9.5zM78 -200l46 146h113l-71 -146h-88z" />
    <glyph glyph-name="lslash.ss02" horiz-adv-x="332" 
d="M11 241v92l262 132v-92zM233 -12q-71 0 -109 39.5t-38 113.5v559h111v-538q0 -34 13 -51.5t38 -17.5q9 0 19 3.5t24 13.5l41 -85q-25 -18 -49.5 -27.5t-49.5 -9.5z" />
    <glyph glyph-name="zero.ss02" horiz-adv-x="645" 
d="M322 -12q-82 0 -146 46.5t-100.5 128t-36.5 187.5t36.5 187.5t100 128t146.5 46.5t147 -46.5t100.5 -128t36.5 -187.5t-36.5 -187.5t-100 -128t-147.5 -46.5zM323 93q49 0 87.5 33t60 91t21.5 133t-21.5 133.5t-60 91.5t-88.5 33t-88 -33t-59.5 -91t-21.5 -134
q0 -75 21.5 -133t60 -91t88.5 -33zM103 157l352 406l87 -27l-347 -399z" />
    <glyph glyph-name="zero.tf" 
d="M313 -12q-82 0 -146 46.5t-100.5 128t-36.5 187.5t36.5 187.5t100 128t146.5 46.5t147 -46.5t100.5 -128t36.5 -187.5t-36.5 -187.5t-100 -128t-147.5 -46.5zM314 93q49 0 87.5 33t60 91t21.5 133t-21.5 133.5t-60 91.5t-88.5 33t-88 -33t-59.5 -91t-21.5 -134
q0 -75 21.5 -133t60 -91t88.5 -33z" />
    <glyph glyph-name="one.tf" 
d="M142 0v102h412v-102h-412zM294 0v552q-37 -27 -75 -43t-77 -14v105q23 -1 52 13.5t58.5 38.5t52.5 48h101v-700h-112z" />
    <glyph glyph-name="two.tf" 
d="M89 0v89q0 31 16 64.5t45.5 67.5t69.5 64l122 88q23 16 42.5 37t31.5 44.5t12 46.5q0 29 -14.5 53t-41 38t-64.5 14q-34 0 -60.5 -13.5t-43.5 -35.5t-24 -48l-119 22q10 48 42.5 89.5t84 66.5t117.5 25q74 0 128.5 -27t84 -74.5t29.5 -108.5q0 -62 -33.5 -111.5
t-93.5 -94.5l-112 -83q-33 -24 -54 -51.5t-29 -58.5h331v-103h-467z" />
    <glyph glyph-name="three.tf" 
d="M312 -12q-57 0 -104 17t-79 48t-46 70l104 39q8 -14 22 -31t37 -29.5t59 -12.5q57 0 90.5 32.5t33.5 82.5q0 36 -18.5 62t-57 40t-96.5 14h-32v96h32q77 0 117 26t40 73q0 27 -13.5 48.5t-38.5 34.5t-59 13q-22 0 -43 -7t-39 -22t-30 -39l-101 37q15 42 48 71.5t77 45
t92 15.5q64 0 114.5 -24t80 -66.5t29.5 -97.5q0 -54 -30.5 -92.5t-81.5 -61.5q58 -27 92.5 -71.5t34.5 -106.5q0 -63 -32.5 -109t-85.5 -70.5t-116 -24.5z" />
    <glyph glyph-name="four.tf" 
d="M119 194l-84 48l311 458l70 -65zM35 150v92l67 9h494v-101h-561zM357 0v633l-11 67h121v-700h-110z" />
    <glyph glyph-name="five.tf" 
d="M317 -12q-46 0 -93.5 14.5t-87.5 44t-61 74.5l103 38q26 -37 61 -53.5t72 -16.5q59 0 96 35.5t37 94.5q0 57 -36 94t-94 37q-34 0 -63.5 -15t-45.5 -36l-105 23l39 378h387v-105h-287l-20 -190q27 16 60.5 25.5t70.5 9.5q60 0 108 -28t76 -76.5t28 -111.5
q0 -70 -31.5 -123t-86.5 -83t-127 -30z" />
    <glyph glyph-name="six.tf" 
d="M325 -12q-71 0 -120.5 26.5t-79.5 72t-44 106t-14 129.5q0 84 17.5 155t52.5 124t87.5 82t122.5 29q54 0 106.5 -16.5t93.5 -45.5l-60 -84q-31 22 -67.5 33t-67.5 11q-87 0 -134.5 -75t-43.5 -233l-24 18q23 57 73 91.5t119 34.5q67 0 119 -30.5t81 -83t29 -119.5
q0 -65 -30.5 -116t-86 -80t-129.5 -29zM326 87q37 0 66.5 17t46.5 46.5t17 67.5t-17 68t-46.5 46.5t-66.5 16.5q-38 0 -67.5 -16.5t-46.5 -46.5t-17 -68t17 -67.5t46.5 -46.5t67.5 -17z" />
    <glyph glyph-name="seven.tf" 
d="M129 0l301 594h-354v106h482v-89l-301 -611h-128z" />
    <glyph glyph-name="eight.tf" 
d="M314 -12q-81 0 -139 24.5t-89 68t-31 101.5q0 63 32.5 110t91.5 73q-47 23 -73.5 63.5t-26.5 93.5q0 56 28.5 99t81.5 67t125 24t125 -24t82 -67t29 -99q0 -53 -26.5 -93.5t-74.5 -63.5q59 -25 92 -73t33 -110q0 -58 -31.5 -101.5t-89.5 -68t-139 -24.5zM314 86
q62 0 102 31t40 79q0 51 -40 83t-102 32q-41 0 -73 -14.5t-50 -40.5t-18 -60q0 -32 18.5 -57t50 -39t72.5 -14zM314 408q53 0 87.5 28.5t34.5 72.5q0 48 -34.5 78t-87.5 30t-87 -30t-34 -78q0 -44 34 -72.5t87 -28.5z" />
    <glyph glyph-name="nine.tf" 
d="M303 712q72 0 121 -26.5t79.5 -72.5t44 -106t13.5 -129q0 -84 -17.5 -155.5t-52 -124t-87 -81.5t-123.5 -29q-54 0 -106 16t-94 46l60 84q31 -22 67.5 -33t67.5 -11q87 0 135 75t44 233l24 -18q-24 -57 -74 -91.5t-119 -34.5q-67 0 -118.5 30.5t-81 83t-29.5 118.5
t30.5 117t86 80t129.5 29zM302 612q-37 0 -66.5 -16.5t-46 -46t-16.5 -67.5t16.5 -68t46 -47t66.5 -17q39 0 68.5 17t46 47t16.5 68t-16.5 67.5t-46 46t-68.5 16.5z" />
    <glyph glyph-name="zero.tf.ss02" 
d="M97 157l353 406l87 -27l-347 -399zM314 -12q-83 0 -147 46.5t-100 128t-36 187.5t36 187.5t99.5 128t146.5 46.5q84 0 148 -46.5t100 -128t36 -187.5t-36 -187.5t-100 -128t-147 -46.5zM314 93q50 0 88 33t60 91t22 133t-22 133.5t-60.5 91.5t-88.5 33q-49 0 -87 -33
t-59.5 -91t-21.5 -134q0 -75 21.5 -133t60 -91t87.5 -33z" />
    <glyph glyph-name="zero.dnom" horiz-adv-x="406" 
d="M204 -6q-52 0 -91.5 27.5t-62 76.5t-22.5 113q0 65 22 113.5t62 76t91 27.5q52 0 91 -27.5t61.5 -76t22.5 -113.5q0 -64 -22.5 -113t-61.5 -76.5t-90 -27.5zM204 75q39 0 63.5 38t24.5 98q0 61 -25 99.5t-64 38.5q-38 0 -61.5 -38.5t-23.5 -99.5q0 -60 24 -98t62 -38z
" />
    <glyph glyph-name="one.dnom" horiz-adv-x="281" 
d="M124 0v373l9 47h76v-420h-85zM36 282v80q22 -1 48.5 16.5t48.5 41.5l56 -54q-38 -42 -75 -64.5t-78 -19.5z" />
    <glyph glyph-name="two.dnom" horiz-adv-x="365" 
d="M121 52l-87 12q0 18 11.5 38.5t31.5 42.5t46 40l59 41q18 13 35 31.5t17 37.5q0 22 -16 36.5t-46 14.5q-25 0 -41 -14.5t-22 -34.5l-91 15q6 31 26.5 57t53 42t73.5 16q71 0 112 -36.5t41 -94.5q0 -41 -22 -70.5t-60 -56.5l-57 -41q-14 -10 -28 -24t-24 -27.5t-12 -24.5z
M34 0v64l66 14h229v-78h-295z" />
    <glyph glyph-name="three.dnom" horiz-adv-x="354" 
d="M182 -6q-58 0 -98.5 26t-50.5 71l83 22q7 -15 20 -29t40 -14q28 0 44 15.5t16 40.5q0 15 -7.5 28t-25.5 20.5t-50 7.5h-28v58h25q47 0 87 -15t64 -43t24 -67t-20 -65.5t-52.5 -41t-70.5 -14.5zM125 199v55h28q39 0 57.5 13t18.5 37q0 20 -14.5 34t-38.5 14
q-18 0 -34 -9.5t-24 -32.5l-82 21q8 32 29.5 53.5t51 32.5t61.5 11q40 0 71.5 -14.5t50 -40.5t18.5 -60q0 -38 -24.5 -63.5t-63 -38t-80.5 -12.5h-25z" />
    <glyph glyph-name="four.dnom" horiz-adv-x="394" 
d="M87 116l-64 34l185 270l52 -49zM23 78v72l49 4h301v-76h-350zM218 0v372l-10 48h94v-420h-84z" />
    <glyph glyph-name="five.dnom" horiz-adv-x="367" 
d="M187 -6q-30 0 -61 10t-55.5 30t-35.5 48l83 23q11 -18 27.5 -26.5t36.5 -8.5q29 0 47 18t18 46t-17.5 47t-47.5 19q-17 0 -31 -7.5t-23 -20.5l-79 18l26 231h240v-81h-227l-13 78h88l-35 -237l-45 9q7 13 24.5 31.5t45 32t63.5 12.5q51 0 86.5 -35.5t35.5 -90.5
q0 -65 -42.5 -105.5t-108.5 -40.5z" />
    <glyph glyph-name="six.dnom" horiz-adv-x="360" 
d="M186 -6q-56 0 -91 26t-51 70.5t-16 99.5q0 47 10 90t30.5 76.5t54 52.5t79.5 19q33 0 65.5 -9.5t57.5 -27.5l-43 -65q-19 13 -40.5 19t-38.5 6q-43 0 -68.5 -39t-23.5 -123l-18 11q14 32 42.5 51.5t66.5 19.5q40 0 71 -19t48.5 -51t17.5 -72q0 -58 -42 -96.5t-111 -38.5z
M187 69q27 0 45.5 18.5t18.5 46.5t-18.5 47t-45.5 19q-28 0 -46.5 -19t-18.5 -47q0 -29 18.5 -47t46.5 -18z" />
    <glyph glyph-name="seven.dnom" horiz-adv-x="346" 
d="M64 0l165 346l96 10l-162 -356h-99zM25 339v81h300v-64l-92 -17h-208z" />
    <glyph glyph-name="eight.dnom" horiz-adv-x="386" 
d="M193 -6q-77 0 -118.5 32t-41.5 84q0 56 41 91.5t119 35.5q77 0 118.5 -35.5t41.5 -91.5q0 -52 -41.5 -84t-118.5 -32zM193 67q30 0 49.5 15.5t19.5 39.5q0 27 -19.5 43.5t-49.5 16.5q-31 0 -50 -16.5t-19 -43.5q0 -24 19 -39.5t50 -15.5zM193 251q26 0 43 15t17 38
t-17 38.5t-43 15.5q-27 0 -43.5 -15.5t-16.5 -38.5t16.5 -38t43.5 -15zM193 203q-70 0 -108.5 31t-38.5 80q0 50 38.5 82t108.5 32t108 -32t38 -82q0 -49 -38.5 -80t-107.5 -31z" />
    <glyph glyph-name="nine.dnom" horiz-adv-x="360" 
d="M158 -6q-33 0 -65 9.5t-58 27.5l43 64q19 -12 41 -18t37 -6q43 0 68.5 38t24.5 124l18 -11q-14 -32 -42 -52t-67 -20q-40 0 -71 19t-48.5 51.5t-17.5 72.5q0 58 41.5 96.5t111.5 38.5q56 0 90.5 -26.5t50.5 -70.5t16 -99q0 -47 -9.5 -89.5t-30.5 -76t-53.5 -53
t-79.5 -19.5zM173 222q28 0 46.5 19.5t18.5 46.5q0 28 -18.5 46.5t-46.5 18.5t-46 -18.5t-18 -46.5t18.5 -47t45.5 -19z" />
    <glyph glyph-name="zero.numr" horiz-adv-x="406" 
d="M204 273q-52 0 -91.5 27.5t-62 76.5t-22.5 113q0 65 22 113.5t62 76t91 27.5q52 0 91 -27.5t61.5 -76t22.5 -113.5q0 -64 -22.5 -113t-61.5 -76.5t-90 -27.5zM204 354q39 0 63.5 38t24.5 98q0 61 -25 99.5t-64 38.5q-38 0 -61.5 -38.5t-23.5 -99.5q0 -60 24 -98t62 -38z
" />
    <glyph glyph-name="one.numr" horiz-adv-x="281" 
d="M124 280v373l9 47h76v-420h-85zM36 562v80q22 -1 48.5 16.5t48.5 41.5l56 -54q-38 -42 -75 -64.5t-78 -19.5z" />
    <glyph glyph-name="two.numr" horiz-adv-x="365" 
d="M121 332l-87 12q0 18 11.5 38.5t31.5 42.5t46 40l59 41q18 13 35 31.5t17 37.5q0 22 -16 36.5t-46 14.5q-25 0 -41 -14.5t-22 -34.5l-91 15q6 31 26.5 57t53 42t73.5 16q71 0 112 -36.5t41 -94.5q0 -41 -22 -70.5t-60 -56.5l-57 -41q-14 -10 -28 -24t-24 -27.5t-12 -24.5
zM34 280v64l66 14h229v-78h-295z" />
    <glyph glyph-name="three.numr" horiz-adv-x="354" 
d="M182 273q-58 0 -98.5 26t-50.5 71l83 22q7 -15 20 -29t40 -14q28 0 44 15.5t16 40.5q0 15 -7.5 28t-25.5 20.5t-50 7.5h-28v58h25q47 0 87 -15t64 -43t24 -67t-20 -65.5t-52.5 -41t-70.5 -14.5zM125 478v55h28q39 0 57.5 13t18.5 37q0 20 -14.5 34t-38.5 14
q-18 0 -34 -9.5t-24 -32.5l-82 21q8 32 29.5 53.5t51 32.5t61.5 11q40 0 71.5 -14.5t50 -40.5t18.5 -60q0 -38 -24.5 -63.5t-63 -38t-80.5 -12.5h-25z" />
    <glyph glyph-name="four.numr" horiz-adv-x="394" 
d="M87 396l-64 34l185 270l52 -49zM23 358v72l49 4h301v-76h-350zM218 280v372l-10 48h94v-420h-84z" />
    <glyph glyph-name="five.numr" horiz-adv-x="367" 
d="M187 273q-30 0 -61 10t-55.5 30t-35.5 48l83 23q11 -18 27.5 -26.5t36.5 -8.5q29 0 47 18t18 46t-17.5 47t-47.5 19q-17 0 -31 -7.5t-23 -20.5l-79 18l26 231h240v-81h-227l-13 78h88l-35 -237l-45 9q7 13 24.5 31.5t45 32t63.5 12.5q51 0 86.5 -35.5t35.5 -90.5
q0 -65 -42.5 -105.5t-108.5 -40.5z" />
    <glyph glyph-name="six.numr" horiz-adv-x="360" 
d="M186 273q-56 0 -91 26t-51 70.5t-16 99.5q0 47 10 90t30.5 76.5t54 52.5t79.5 19q33 0 65.5 -9.5t57.5 -27.5l-43 -65q-19 13 -40.5 19t-38.5 6q-43 0 -68.5 -39t-23.5 -123l-18 11q14 32 42.5 51.5t66.5 19.5q40 0 71 -19t48.5 -51t17.5 -72q0 -58 -42 -96.5t-111 -38.5
zM187 348q27 0 45.5 18.5t18.5 46.5t-18.5 47t-45.5 19q-28 0 -46.5 -19t-18.5 -47q0 -29 18.5 -47t46.5 -18z" />
    <glyph glyph-name="seven.numr" horiz-adv-x="346" 
d="M64 280l165 346l96 10l-162 -356h-99zM25 619v81h300v-64l-92 -17h-208z" />
    <glyph glyph-name="eight.numr" horiz-adv-x="386" 
d="M193 273q-77 0 -118.5 32t-41.5 84q0 56 41 91.5t119 35.5q77 0 118.5 -35.5t41.5 -91.5q0 -52 -41.5 -84t-118.5 -32zM193 346q30 0 49.5 15.5t19.5 39.5q0 27 -19.5 43.5t-49.5 16.5q-31 0 -50 -16.5t-19 -43.5q0 -24 19 -39.5t50 -15.5zM193 530q26 0 43 15t17 38
t-17 38.5t-43 15.5q-27 0 -43.5 -15.5t-16.5 -38.5t16.5 -38t43.5 -15zM193 482q-70 0 -108.5 31t-38.5 80q0 50 38.5 82t108.5 32t108 -32t38 -82q0 -49 -38.5 -80t-107.5 -31z" />
    <glyph glyph-name="nine.numr" horiz-adv-x="360" 
d="M158 273q-33 0 -65 9.5t-58 27.5l43 64q19 -12 41 -18t37 -6q43 0 68.5 38t24.5 124l18 -11q-14 -32 -42 -52t-67 -20q-40 0 -71 19t-48.5 51.5t-17.5 72.5q0 58 41.5 96.5t111.5 38.5q56 0 90.5 -26.5t50.5 -70.5t16 -99q0 -47 -9.5 -89.5t-30.5 -76t-53.5 -53
t-79.5 -19.5zM173 501q28 0 46.5 19.5t18.5 46.5q0 28 -18.5 46.5t-46.5 18.5t-46 -18.5t-18 -46.5t18.5 -47t45.5 -19z" />
    <glyph glyph-name="periodcentered.loclCAT" horiz-adv-x="124" 
d="M62 249q-29 0 -49.5 20.5t-20.5 49.5t20.5 50t49.5 21t50 -21t21 -50t-21 -49.5t-50 -20.5z" />
    <glyph glyph-name="periodcentered.loclCAT.case" horiz-adv-x="0" 
d="M-71 297q-29 0 -49.5 20.5t-20.5 49.5t20.5 50t49.5 21t50 -21t21 -50t-21 -49.5t-50 -20.5z" />
    <glyph glyph-name="uni030C.alt" horiz-adv-x="0" 
d="M20 538l41 161h105l-59 -161h-87z" />
    <glyph glyph-name="uni0328.alt" horiz-adv-x="0" 
d="M161 -212q-42 0 -74.5 11t-50.5 32.5t-18 52.5q0 34 17 62t48 52.5t70 46.5h22q-27 -25 -41.5 -47.5t-20 -44t-5.5 -41.5t11.5 -31.5t32.5 -11.5q15 0 29 2.5t25 7.5l33 -73q-16 -9 -36 -13.5t-42 -4.5z" />
    <glyph glyph-name="uni0304.narrow" horiz-adv-x="0" 
d="M14 567v97h272v-97h-272z" />
    <glyph glyph-name="dollar.BRACKET.varAlt01" horiz-adv-x="558" 
d="M287 23q-66 0 -117 20.5t-83 53.5t-43 71l104 32q12 -33 45.5 -57t83.5 -25q57 0 90.5 23.5t33.5 62.5q0 34 -28.5 57t-75.5 35l-77 19q-45 12 -80 35.5t-55 58t-20 81.5q0 88 57.5 137.5t164.5 49.5q61 0 106 -18.5t75 -51t44 -72.5l-103 -34q-13 34 -46 57.5t-81 23.5
q-50 0 -78.5 -23.5t-28.5 -64.5q0 -35 22.5 -54t59.5 -29l78 -19q85 -21 131.5 -72t46.5 -112q0 -54 -26.5 -95.5t-76.5 -65.5t-123 -24zM240 -103v165h96v-165h-96zM240 615v165h96v-165h-96z" />
    </font>
</defs>
</svg>
