<?xml version="1.0" standalone="no"?>
<!DOCTYPE svg PUBLIC "-//W3C//DTD SVG 1.1//EN" "http://www.w3.org/Graphics/SVG/1.1/DTD/svg11.dtd" >
<svg xmlns="http://www.w3.org/2000/svg" xmlns:xlink="http://www.w3.org/1999/xlink" version="1.1">
<metadata>
Created by FontForge 20201107 at Wed Apr  9 14:49:15 2025
 By 
Copyright 2022 The Figtree Project Authors (https://github.com/erikdkennedy/figtree)
</metadata>
<defs>
<font id="Figtree-Regular" horiz-adv-x="623" >
  <font-face 
    font-family="Figtree"
    font-weight="400"
    font-stretch="normal"
    units-per-em="1000"
    panose-1="0 0 0 0 0 0 0 0 0 0"
    ascent="800"
    descent="-200"
    x-height="500"
    cap-height="700"
    bbox="-173 -220 1100 917"
    underline-thickness="50"
    underline-position="-125"
    unicode-range="U+000D-2265"
  />
<missing-glyph horiz-adv-x="708" 
d="M100 -170v960h508v-960h-508zM158 -112h392v844h-392v-844z" />
    <glyph glyph-name=".notdef" horiz-adv-x="708" 
d="M100 -170v960h508v-960h-508zM158 -112h392v844h-392v-844z" />
    <glyph glyph-name=".null" horiz-adv-x="0" 
 />
    <glyph glyph-name="nonmarkingreturn" horiz-adv-x="333" 
 />
    <glyph glyph-name="CR" unicode="&#xd;" horiz-adv-x="600" 
 />
    <glyph glyph-name="space" unicode=" " horiz-adv-x="247" 
 />
    <glyph glyph-name="exclam" unicode="!" horiz-adv-x="298" 
d="M108 203l-3 497h87l-2 -497h-82zM149 -14q-23 0 -39.5 16t-16.5 39t16.5 39.5t39.5 16.5t39 -16.5t16 -39.5t-16 -39t-39 -16z" />
    <glyph glyph-name="quotedbl" unicode="&#x22;" horiz-adv-x="320" 
d="M68 482l-8 234h80l-8 -234h-64zM188 482l-8 234h80l-8 -234h-64z" />
    <glyph glyph-name="numbersign" unicode="#" horiz-adv-x="629" 
d="M340 0l110 700h65l-110 -700h-65zM10 195l8 56h562l-8 -56h-562zM115 0l110 700h64l-110 -700h-64zM48 444l9 56h562l-9 -56h-562z" />
    <glyph glyph-name="dollar" unicode="$" horiz-adv-x="563" 
d="M291 23q-69 0 -118.5 20t-79.5 52.5t-42 68.5l74 26q15 -38 55 -66t98 -29q71 0 111.5 28.5t40.5 73.5q0 43 -36.5 70t-94.5 42l-69 17q-43 11 -78.5 33t-56 55.5t-20.5 80.5q0 85 56 133.5t161 48.5q61 0 106 -20t73.5 -52t39.5 -67l-75 -27q-17 42 -56.5 68t-95.5 26
q-59 0 -93 -28.5t-34 -75.5q0 -44 26.5 -66.5t70.5 -33.5l70 -16q91 -22 139.5 -73t48.5 -109q0 -50 -25 -91t-74 -65t-122 -24zM255 -103v883h74v-883h-74z" />
    <glyph glyph-name="percent" unicode="%" horiz-adv-x="786" 
d="M97 0l497 700h93l-500 -700h-90zM582 -16q-45 0 -80.5 21.5t-55 59t-19.5 85.5q0 49 19.5 86t55 58.5t80.5 21.5q46 0 81 -21.5t55 -58.5t20 -86q0 -48 -20 -85.5t-55 -59t-81 -21.5zM582 48q39 0 63 29t24 73t-24 73t-63 29q-37 0 -61.5 -29t-24.5 -73t24.5 -73
t61.5 -29zM203 384q-46 0 -81 21.5t-55 59t-20 85.5q0 49 20 86t55 58.5t81 21.5t81 -21.5t55 -58.5t20 -86q0 -48 -20 -85.5t-55 -59t-81 -21.5zM203 448q38 0 62 29t24 73t-24 73t-62 29q-37 0 -61.5 -29t-24.5 -73t24.5 -73t61.5 -29z" />
    <glyph glyph-name="ampersand" unicode="&#x26;" horiz-adv-x="644" 
d="M259 -14q-59 0 -105 23t-72.5 65t-26.5 95q0 44 17 79t45.5 63.5t62.5 52.5l91 62q25 18 49.5 37t41.5 42.5t17 52.5q0 39 -26.5 62t-67.5 23q-36 0 -61.5 -24t-25.5 -59q0 -30 18 -53.5t45 -55.5l123 -148l250 -303h-102l-216 260l-120 145q-23 28 -41.5 53t-28.5 50
t-10 52q0 45 22.5 79.5t60 54.5t84.5 20q50 0 90.5 -19.5t63.5 -54.5t23 -83q0 -39 -21 -73.5t-56.5 -65t-80.5 -61.5l-73 -51q-22 -15 -43 -33.5t-34 -43t-13 -59.5q0 -49 34.5 -80t87.5 -31q52 0 97 17.5t79.5 50.5t53 79t18.5 101h81q0 -93 -42.5 -166t-117 -114
t-171.5 -41z" />
    <glyph glyph-name="quotesingle" unicode="'" horiz-adv-x="200" 
d="M68 482l-8 234h80l-8 -234h-64z" />
    <glyph glyph-name="parenleft" unicode="(" horiz-adv-x="352" 
d="M223 -100q-46 61 -84 132.5t-60 151.5t-22 166q0 87 22 166.5t60 151t84 132.5h82q-46 -64 -84 -137t-60 -151.5t-22 -161.5q0 -82 22 -161t60 -151.5t84 -137.5h-82z" />
    <glyph glyph-name="parenright" unicode=")" horiz-adv-x="352" 
d="M129 -100h-82q47 65 84.5 137.5t59.5 151.5t22 161q0 83 -22 161.5t-59.5 151.5t-84.5 137h82q47 -61 84.5 -132.5t59.5 -151t22 -166.5q0 -86 -22 -166t-59.5 -151.5t-84.5 -132.5z" />
    <glyph glyph-name="asterisk" unicode="*" horiz-adv-x="481" 
d="M317 385l-95 145l44 31l108 -135zM168 382l-58 42l109 135l44 -32zM232 518l-167 46l22 67l162 -62zM214 543l-9 173h70l-8 -173h-53zM248 517l-15 51l162 61l21 -66z" />
    <glyph glyph-name="plus" unicode="+" 
d="M277 71v454h71v-454h-71zM85 262v71h453v-71h-453z" />
    <glyph glyph-name="comma" unicode="," horiz-adv-x="226" 
d="M40 -115l57 211h90l-78 -211h-69z" />
    <glyph glyph-name="hyphen" unicode="-" horiz-adv-x="417" 
d="M58 261v73h300v-73h-300z" />
    <glyph glyph-name="period" unicode="." horiz-adv-x="208" 
d="M104 -14q-23 0 -39.5 16.5t-16.5 38.5q0 23 16.5 39.5t39.5 16.5t39 -16.5t16 -39.5q0 -22 -16 -38.5t-39 -16.5z" />
    <glyph glyph-name="slash" unicode="/" horiz-adv-x="389" 
d="M15 -84l276 831h83l-274 -831h-85z" />
    <glyph glyph-name="zero" unicode="0" horiz-adv-x="641" 
d="M320 -12q-80 0 -142 46.5t-97 128t-35 187.5t35 187.5t96.5 128t142.5 46.5t142.5 -46.5t97 -128t35.5 -187.5t-35 -187.5t-97 -128t-143 -46.5zM320 64q56 0 99.5 37t68 101t24.5 148t-24.5 148.5t-68 101t-99.5 36.5t-99 -36.5t-67.5 -101t-24.5 -148.5t24.5 -148
t68 -101t98.5 -37z" />
    <glyph glyph-name="one" unicode="1" horiz-adv-x="413" 
d="M217 0v589q-38 -31 -77.5 -50.5t-79.5 -18.5v77q21 -1 50 14t60 39t54 50h76v-700h-83z" />
    <glyph glyph-name="two" unicode="2" horiz-adv-x="559" 
d="M57 0v70q0 33 13.5 65.5t39 64.5t62.5 60l145 109q26 18 45.5 41.5t30.5 49t11 49.5q0 35 -17 63.5t-48 45.5t-73 17q-41 0 -72 -15.5t-51 -41t-29 -54.5l-86 17q12 45 43.5 84t80.5 63t109 24q70 0 121 -26.5t79.5 -72t28.5 -103.5q0 -55 -30 -104t-87 -95l-137 -104
q-40 -30 -61.5 -63t-24.5 -69h350v-75h-443z" />
    <glyph glyph-name="three" unicode="3" horiz-adv-x="544" 
d="M269 -12q-51 0 -92.5 15.5t-71 40.5t-46.5 53l70 39q11 -14 27.5 -31.5t42.5 -29.5t64 -12q68 0 109 39t41 98q0 45 -24.5 76t-70.5 47t-110 16h-19v72h19q86 0 136.5 29.5t50.5 84.5q0 30 -16 55.5t-46.5 41t-70.5 15.5q-27 0 -50.5 -7.5t-43 -22t-35.5 -36.5l-66 38
q19 31 48.5 54t67.5 36t83 13q61 0 109.5 -24t76.5 -65.5t28 -93.5q0 -53 -30 -91.5t-82 -61.5q60 -26 94.5 -71.5t34.5 -110.5q0 -62 -30.5 -108.5t-82.5 -72t-115 -25.5z" />
    <glyph glyph-name="four" unicode="4" horiz-adv-x="621" 
d="M366 0v170h-323v65l319 465h86v-455h143v-75h-143v-170h-82zM140 245h226v332z" />
    <glyph glyph-name="five" unicode="5" horiz-adv-x="575" 
d="M290 -12q-42 0 -85.5 12.5t-82 38.5t-63.5 67l68 39q35 -44 76 -64t85 -20q69 0 112.5 42.5t43.5 111.5q0 68 -42 111t-110 43q-37 0 -73 -16.5t-56 -40.5l-76 18l34 370h373v-76h-298l-21 -223q28 17 62 27t69 10q64 0 114 -28t79 -78t29 -115q0 -68 -30.5 -119.5
t-84 -80.5t-123.5 -29z" />
    <glyph glyph-name="six" unicode="6" horiz-adv-x="566" 
d="M298 -12q-72 0 -121 27.5t-78 74.5t-41.5 108.5t-12.5 130.5q0 90 18.5 161t53.5 120.5t85 75.5t113 26q52 0 103.5 -16.5t91.5 -45.5l-47 -60q-32 22 -69 34.5t-71 12.5q-102 0 -155 -86t-47 -261l-18 18q24 61 77 96.5t125 35.5q67 0 119.5 -29t82 -80.5t29.5 -117.5
q0 -65 -30 -116.5t-83.5 -80t-124.5 -28.5zM298 62q45 0 79.5 19.5t54 54t19.5 79.5t-19.5 79.5t-54 53.5t-79.5 19q-44 0 -79 -19t-55 -53.5t-20 -79.5t20 -79.5t55 -54t79 -19.5z" />
    <glyph glyph-name="seven" unicode="7" horiz-adv-x="537" 
d="M82 0l332 623h-372v77h465v-70l-332 -630h-93z" />
    <glyph glyph-name="eight" unicode="8" horiz-adv-x="614" 
d="M306 -12q-75 0 -132 24.5t-88 68t-31 101.5q0 62 34 109.5t93 71.5q-47 23 -74 64t-27 95q0 56 28 99t79 67t118 24q69 0 119.5 -24t79 -67t28.5 -99q0 -54 -27 -95t-74 -64q59 -24 93 -71.5t34 -109.5q0 -58 -31.5 -101.5t-88 -68t-133.5 -24.5zM306 62q74 0 121 35.5
t47 92.5q0 58 -47 94.5t-121 36.5q-48 0 -85.5 -16.5t-59 -46t-21.5 -68.5q0 -38 21.5 -67t59 -45t85.5 -16zM306 400q64 0 104 31.5t40 82.5q0 56 -40 90.5t-104 34.5q-62 0 -102 -34.5t-40 -90.5q0 -51 40 -82.5t102 -31.5z" />
    <glyph glyph-name="nine" unicode="9" horiz-adv-x="566" 
d="M267 712q74 0 122 -27.5t77.5 -74.5t42 -108.5t12.5 -130.5q0 -90 -19 -161t-54 -120.5t-84.5 -75.5t-112.5 -26q-52 0 -103.5 16.5t-92.5 45.5l47 60q32 -22 69.5 -34.5t71.5 -12.5q102 0 155.5 86t46.5 260l18 -17q-24 -61 -77 -97t-125 -36q-68 0 -120 29.5
t-81.5 80.5t-29.5 118q0 66 30 116.5t83.5 79.5t123.5 29zM267 638q-44 0 -79 -19.5t-54.5 -54t-19.5 -79.5t19.5 -79.5t54.5 -54t79 -19.5q46 0 80.5 19.5t54 54t19.5 79.5t-19.5 79.5t-54 54t-80.5 19.5z" />
    <glyph glyph-name="colon" unicode=":" horiz-adv-x="253" 
d="M126 391q-23 0 -39.5 16t-16.5 39t16.5 39.5t39.5 16.5q22 0 38.5 -16.5t16.5 -39.5t-16.5 -39t-38.5 -16zM127 -2q-23 0 -39 16.5t-16 39.5t16 39t39 16t39.5 -16t16.5 -39t-16.5 -39.5t-39.5 -16.5z" />
    <glyph glyph-name="semicolon" unicode=";" horiz-adv-x="259" 
d="M122 390q-22 0 -38.5 16.5t-16.5 38.5q0 23 16.5 39.5t38.5 16.5q23 0 39.5 -16.5t16.5 -39.5q0 -22 -16.5 -38.5t-39.5 -16.5zM42 -115l57 211h89l-77 -211h-69z" />
    <glyph glyph-name="less" unicode="&#x3c;" 
d="M478 498v-78l-256 -122l256 -119v-79l-342 159v78z" />
    <glyph glyph-name="equal" unicode="=" 
d="M112 362v71h400v-71h-400zM112 162v71h400v-71h-400z" />
    <glyph glyph-name="greater" unicode="&#x3e;" 
d="M145 99v78l256 122l-256 119v79l343 -159v-78z" />
    <glyph glyph-name="question" unicode="?" horiz-adv-x="504" 
d="M175 188l-1 178l52 2q66 1 108 37.5t42 99.5q0 57 -39.5 94.5t-102.5 37.5q-46 0 -80.5 -21.5t-46.5 -53.5l-75 23q20 56 72.5 91.5t129.5 35.5q66 0 116 -26.5t79 -73.5t29 -107q0 -57 -25.5 -101t-70.5 -70.5t-105 -31.5v-114h-82zM216 -14q-24 0 -40 16t-16 39
q0 24 16 40t40 16t39.5 -16t15.5 -40q0 -23 -15.5 -39t-39.5 -16z" />
    <glyph glyph-name="at" unicode="@" horiz-adv-x="989" 
d="M515 -212q-104 0 -189.5 34t-148 96.5t-97 147t-34.5 186.5t34.5 186.5t97 146.5t148.5 96t189 34q94 0 172 -34t136 -96t89 -146.5t31 -186.5q0 -78 -24 -138t-67.5 -94.5t-98.5 -34.5q-51 -1 -81.5 27.5t-33.5 96.5q-28 -44 -73.5 -69t-102.5 -25q-65 0 -115 30.5
t-78.5 84.5t-28.5 123q0 70 28.5 123t78.5 83.5t115 30.5q56 0 101 -24t72 -67v80h79v-374q0 -25 12 -39.5t31 -14.5q33 0 58.5 26t40 71t14.5 104q0 87 -26.5 159t-73.5 125t-112.5 82t-142.5 29q-88 0 -160 -29t-125 -82t-82 -125t-29 -159t29 -159t82 -125t125 -82.5
t160 -29.5q39 0 84.5 10.5t77.5 26.5l36 -56q-42 -22 -98 -35.5t-100 -13.5zM481 87q62 0 104.5 39t50.5 100v54q-8 61 -51 99t-105 38q-47 0 -82.5 -21t-56 -57.5t-20.5 -85.5q0 -48 20.5 -85.5t56.5 -59t83 -21.5z" />
    <glyph glyph-name="A" unicode="A" horiz-adv-x="677" 
d="M9 0l285 700h88l285 -700h-89l-81 199h-317l-81 -199h-90zM209 275h258l-129 319z" />
    <glyph glyph-name="B" unicode="B" horiz-adv-x="611" 
d="M93 0v700h221q72 0 123 -22t79 -64.5t28 -103.5q0 -51 -23 -89.5t-65 -62.5q52 -25 80.5 -67t28.5 -100q0 -61 -27 -103.5t-76.5 -65t-118.5 -22.5h-250zM177 76h162q66 0 103.5 31.5t37.5 86.5q0 59 -43 92.5t-120 33.5h-140v-244zM177 393h158q58 0 91 31t33 86
q0 57 -38.5 87.5t-108.5 30.5h-135v-235z" />
    <glyph glyph-name="C" unicode="C" horiz-adv-x="721" 
d="M388 -12q-100 0 -177 46.5t-121 128t-44 187.5t43.5 187.5t120 128t175.5 46.5q63 0 121 -22.5t104 -63t71 -93.5l-73 -37q-20 42 -55 73t-78 48.5t-90 17.5q-73 0 -131 -36.5t-90.5 -100.5t-32.5 -148t33 -149t91.5 -101.5t132.5 -36.5q48 0 91 19.5t77.5 53.5t54.5 78
l74 -37q-26 -55 -71.5 -98t-104 -67t-121.5 -24z" />
    <glyph glyph-name="D" unicode="D" horiz-adv-x="688" 
d="M93 0v700h213q99 0 174.5 -44.5t118.5 -123.5t43 -182q0 -102 -43 -181t-118.5 -124t-174.5 -45h-213zM178 78h128q53 0 98 20.5t79.5 58.5t54 87.5t19.5 105.5t-19.5 105.5t-54 87.5t-79.5 58.5t-98 20.5h-128v-544z" />
    <glyph glyph-name="E" unicode="E" horiz-adv-x="592" 
d="M93 0v700h414v-77h-329v-226h300v-76h-300v-244h331v-77h-416z" />
    <glyph glyph-name="F" unicode="F" horiz-adv-x="543" 
d="M93 0v700h416v-77h-331v-239h292v-77h-292v-307h-85z" />
    <glyph glyph-name="G" unicode="G" horiz-adv-x="760" 
d="M410 -12q-107 0 -189 46.5t-128.5 128t-46.5 186.5q0 107 46.5 188.5t128.5 128t189 46.5q56 0 109 -18.5t97 -50.5t71 -73l-67 -46q-20 32 -54 57.5t-74.5 39.5t-81.5 14q-81 0 -144 -36.5t-99 -100.5t-36 -149q0 -82 35.5 -146.5t99 -101.5t144.5 -37q67 0 119.5 28
t82.5 78t31 114h-172v73h253v-66q0 -91 -40.5 -159t-111.5 -106t-162 -38z" />
    <glyph glyph-name="H" unicode="H" horiz-adv-x="751" 
d="M93 0v700h85v-301h396v301h84v-700h-84v322h-396v-322h-85z" />
    <glyph glyph-name="I" unicode="I" horiz-adv-x="271" 
d="M93 0v700h85v-700h-85z" />
    <glyph glyph-name="J" unicode="J" horiz-adv-x="515" 
d="M197 -12q-36 0 -66.5 10.5t-54.5 28t-41 40t-28 46.5l64 37q21 -37 51.5 -61t75.5 -24q36 0 70.5 17t56.5 57t22 105v456h84v-489q0 -55 -19.5 -97t-53 -70t-75.5 -42t-86 -14z" />
    <glyph glyph-name="K" unicode="K" horiz-adv-x="610" 
d="M93 0v700h81v-323l311 323h106l-301 -315l314 -385h-103l-266 328l-61 -64v-264h-81z" />
    <glyph glyph-name="L" unicode="L" horiz-adv-x="520" 
d="M93 0v700h85v-623h330v-77h-415z" />
    <glyph glyph-name="M" unicode="M" horiz-adv-x="846" 
d="M93 0v700h88l242 -358l242 358h87v-700h-84v564l-245 -365l-245 363v-562h-85z" />
    <glyph glyph-name="N" unicode="N" horiz-adv-x="774" 
d="M93 0v700h86l417 -562v562h85v-700h-85l-418 565v-565h-85z" />
    <glyph glyph-name="O" unicode="O" horiz-adv-x="776" 
d="M391 -12q-101 0 -179 46t-122 128t-44 188q0 107 43.5 188.5t120.5 127.5t178 46t178.5 -46.5t120.5 -128t43 -187.5t-43 -188t-119.5 -128t-176.5 -46zM391 65q75 0 132 36.5t89.5 100.5t32.5 148q0 83 -33 147.5t-90.5 101t-133.5 36.5q-75 0 -133 -36.5t-91 -101
t-33 -147.5q0 -84 33 -148t92 -100.5t135 -36.5z" />
    <glyph glyph-name="P" unicode="P" horiz-adv-x="579" 
d="M93 0v700h228q68 0 120.5 -28t82 -78t29.5 -116q0 -64 -27 -114t-74 -78.5t-109 -28.5h-165v-257h-85zM178 334h165q55 0 90.5 40.5t35.5 103.5q0 65 -42 105t-107 40h-142v-289z" />
    <glyph glyph-name="Q" unicode="Q" horiz-adv-x="780" 
d="M677 -39l-88 89q-41 -30 -91 -46t-107 -16q-101 0 -179 46t-122 128t-44 188q0 80 25 146.5t70.5 114.5t108.5 74.5t138 26.5q101 0 178.5 -46.5t120.5 -128t43 -187.5q0 -74 -22 -138t-62 -110l85 -86zM391 65q40 0 75 11.5t64 33.5l-103 104l56 53l104 -106
q28 38 43 85t15 104q0 83 -33 147.5t-90.5 101t-133.5 36.5q-75 0 -133 -36.5t-91 -101t-33 -147.5q0 -84 33 -148t92 -100.5t135 -36.5z" />
    <glyph glyph-name="R" unicode="R" horiz-adv-x="626" 
d="M93 0v700h228q68 0 120.5 -27t82 -75t29.5 -110q0 -69 -39.5 -120.5t-103.5 -75.5l171 -292h-93l-161 276q-7 -1 -14 -1h-14h-121v-275h-85zM178 353h155q38 0 68 17.5t48.5 48t18.5 69.5q0 60 -41.5 97.5t-107.5 37.5h-141v-270z" />
    <glyph glyph-name="S" unicode="S" horiz-adv-x="614" 
d="M317 -12q-58 0 -103 12.5t-78 35t-54 50t-31 58.5l81 28q15 -44 60.5 -76.5t111.5 -32.5q81 0 127 32t46 85q0 49 -41 79.5t-108 47.5l-77 20q-47 12 -86.5 35.5t-63 60t-23.5 87.5q0 95 61.5 148.5t177.5 53.5q69 0 119 -22.5t81.5 -57t44.5 -74.5l-80 -28
q-19 50 -64 78.5t-109 28.5q-67 0 -106.5 -32.5t-39.5 -88.5q0 -48 31 -73.5t81 -37.5l77 -19q102 -24 156.5 -79.5t54.5 -119.5q0 -55 -28 -100.5t-82.5 -72t-135.5 -26.5z" />
    <glyph glyph-name="T" unicode="T" horiz-adv-x="552" 
d="M234 0v623h-223v77h530v-77h-223v-623h-84z" />
    <glyph glyph-name="U" unicode="U" horiz-adv-x="707" 
d="M351 -15q-79 0 -139.5 33.5t-94.5 93t-34 137.5v451h85v-451q0 -55 23.5 -97.5t65.5 -66t96 -23.5q55 0 97.5 23.5t66 66t23.5 97.5v451h84v-451q0 -78 -34 -137.5t-96 -93t-143 -33.5z" />
    <glyph glyph-name="V" unicode="V" horiz-adv-x="693" 
d="M299 0l-290 700h89l248 -604l248 604h89l-290 -700h-94z" />
    <glyph glyph-name="W" unicode="W" horiz-adv-x="960" 
d="M223 0l-214 700h85l175 -571l169 571h84l166 -569l177 569h85l-217 -700h-91l-162 563l-167 -563h-90z" />
    <glyph glyph-name="X" unicode="X" horiz-adv-x="614" 
d="M10 0l250 355l-249 345h101l196 -277l194 277h101l-248 -345l249 -355h-102l-194 287l-196 -287h-102z" />
    <glyph glyph-name="Y" unicode="Y" horiz-adv-x="604" 
d="M260 0v293l-251 407h98l195 -321l196 321h97l-251 -407v-293h-84z" />
    <glyph glyph-name="Z" unicode="Z" horiz-adv-x="641" 
d="M47 0v78l441 544h-438v78h544v-78l-441 -544h438v-78h-544z" />
    <glyph glyph-name="bracketleft" unicode="[" horiz-adv-x="324" 
d="M93 -100v900h157v-75h-78v-750h78v-75h-157z" />
    <glyph glyph-name="backslash" unicode="\" horiz-adv-x="389" 
d="M374 -84h-85l-274 831h83z" />
    <glyph glyph-name="bracketright" unicode="]" horiz-adv-x="324" 
d="M230 -100h-157v75h79v750h-79v75h157v-900z" />
    <glyph glyph-name="asciicircum" unicode="^" horiz-adv-x="551" 
d="M395 373l-162 327h82l157 -327h-77zM78 373l155 327h81l-158 -327h-78z" />
    <glyph glyph-name="underscore" unicode="_" horiz-adv-x="438" 
d="M19 -73v73h400v-73h-400z" />
    <glyph glyph-name="grave" unicode="`" horiz-adv-x="221" 
d="M130 571l-130 130h102l120 -130h-92z" />
    <glyph glyph-name="a" unicode="a" horiz-adv-x="510" 
d="M228 -12q-88 0 -137.5 40.5t-49.5 112.5q0 76 50.5 116.5t141.5 40.5h139q-5 71 -35 106.5t-90 35.5q-41 0 -70.5 -16.5t-48.5 -52.5l-72 28q19 35 46 60.5t63 39t82 13.5q70 0 115.5 -27.5t68.5 -81t22 -132.5l-1 -271h-74l-4 67q-22 -38 -59 -58.5t-87 -20.5zM232 58
q43 0 75 18.5t49.5 52.5t17.5 82v20h-123q-70 0 -99.5 -23t-29.5 -66q0 -39 29 -61.5t81 -22.5z" />
    <glyph glyph-name="b" unicode="b" horiz-adv-x="586" 
d="M319 -12q-55 0 -98 26t-71 71l-4 -85h-76v700h80v-284q28 45 71 70.5t98 25.5q67 0 118 -33t79.5 -92t28.5 -137q0 -77 -28.5 -136.5t-79.5 -92.5t-118 -33zM301 61q47 0 83.5 24t58 67t21.5 98t-20.5 98t-57.5 67t-84 24q-44 0 -78.5 -24t-54 -67t-19.5 -98t19.5 -98
t53.5 -67t78 -24z" />
    <glyph glyph-name="c" unicode="c" horiz-adv-x="541" 
d="M293 -12q-74 0 -131 33.5t-89 92.5t-32 136t31.5 136t88.5 92.5t130 33.5q72 0 129 -33t87 -93l-73 -33q-20 40 -58 62.5t-87 22.5t-86.5 -24t-59 -66.5t-21.5 -97.5t21.5 -97.5t60 -66.5t87.5 -24t87.5 25t58.5 70l73 -33q-30 -64 -87 -100t-130 -36z" />
    <glyph glyph-name="d" unicode="d" horiz-adv-x="586" 
d="M267 -12q-67 0 -118 33t-79.5 92.5t-28.5 136.5q0 78 28.5 137t79.5 92t118 33q55 0 98.5 -25.5t70.5 -70.5v284h80v-700h-76l-4 85q-27 -45 -70.5 -71t-98.5 -26zM285 61q44 0 77.5 23.5t53 66t20.5 95.5v7q-1 54 -20.5 96.5t-53.5 66t-78 23.5q-47 0 -84 -24t-57.5 -67
t-20.5 -98t21 -98t58 -67t84 -24z" />
    <glyph glyph-name="e" unicode="e" horiz-adv-x="546" 
d="M289 -12q-73 0 -129 33.5t-87.5 92.5t-31.5 136t31.5 136t87 92.5t127.5 33.5q70 0 121 -34.5t79 -96.5t28 -146h-393q5 -82 52 -128t119 -46q53 0 89.5 25t56.5 66l69 -35q-19 -39 -50.5 -68t-74 -45t-94.5 -16zM128 302h301q-3 43 -22.5 74t-50.5 48t-70 17
q-38 0 -73 -16.5t-58 -48t-27 -74.5z" />
    <glyph glyph-name="f" unicode="f" horiz-adv-x="369" 
d="M120 0v431h-92v69h92v57q0 78 36.5 117.5t111.5 39.5q20 0 45 -7t53 -20l-30 -63q-23 9 -39 14t-27 5q-35 0 -52.5 -22.5t-17.5 -69.5v-51h145v-69h-145v-431h-80z" />
    <glyph glyph-name="g" unicode="g" horiz-adv-x="587" 
d="M270 -212q-48 0 -87.5 9.5t-67 21t-39.5 19.5l30 65q13 -7 37 -17.5t56.5 -18t69.5 -7.5q48 0 86.5 19.5t60 61t21.5 106.5v53q-27 -45 -71 -70.5t-99 -25.5q-67 0 -118 32t-79.5 89.5t-28.5 131.5q0 76 28.5 133.5t79.5 89.5t118 32q55 0 99 -25t71 -71v84h80v-452
q0 -86 -32 -144t-88 -87t-127 -29zM286 73q44 0 78 24t53 65.5t19 96.5q0 53 -19.5 94.5t-53 65t-78.5 23.5q-47 0 -83.5 -23.5t-57 -65t-20.5 -94.5q0 -55 21 -96.5t57.5 -65.5t83.5 -24z" />
    <glyph glyph-name="h" unicode="h" horiz-adv-x="558" 
d="M70 0v700h80v-273q25 41 65 63t93 22q58 0 102 -23.5t68.5 -74.5t23.5 -134v-280h-80v256q0 74 -17.5 113t-47.5 53.5t-68 14.5q-66 0 -102.5 -46.5t-36.5 -131.5v-259h-80z" />
    <glyph glyph-name="i" unicode="i" horiz-adv-x="232" 
d="M75 0v500h80v-500h-80zM116 616q-20 0 -35 15t-15 35q0 21 15 35.5t35 14.5q21 0 35.5 -14.5t14.5 -35.5q0 -20 -14.5 -35t-35.5 -15z" />
    <glyph glyph-name="j" unicode="j" horiz-adv-x="269" 
d="M152 617q-20 0 -35 15t-15 35q0 22 15 36.5t35 14.5q21 0 36 -14.5t15 -36.5q0 -20 -15 -35t-36 -15zM41 -215q-37 0 -94 26l30 67q24 -9 40.5 -14t26.5 -5q68 0 68 87v554h80v-556q0 -78 -38 -118.5t-113 -40.5z" />
    <glyph glyph-name="k" unicode="k" horiz-adv-x="485" 
d="M70 0v700h80v-426l213 226h101l-186 -200l206 -300h-99l-160 242l-75 -79v-163h-80z" />
    <glyph glyph-name="l" unicode="l" horiz-adv-x="220" 
d="M70 0v700h80v-700h-80z" />
    <glyph glyph-name="m" unicode="m" horiz-adv-x="851" 
d="M70 0v500h75l4 -70q23 40 59 61t84 21q60 0 102.5 -28t61.5 -85q21 55 61.5 84t96.5 29q84 0 132.5 -56t47.5 -170v-286h-80v256q0 74 -15.5 113t-41.5 53.5t-60 14.5q-59 0 -92 -46.5t-33 -131.5v-259h-80v256q0 74 -15.5 113t-42 53.5t-60.5 14.5q-58 0 -91 -46.5
t-33 -131.5v-259h-80z" />
    <glyph glyph-name="n" unicode="n" horiz-adv-x="558" 
d="M70 0v500h75l4 -75q25 42 65 64.5t93 22.5q59 0 102.5 -23.5t68 -74.5t23.5 -134v-280h-80v256q0 74 -17 113t-47 53.5t-68 14.5q-66 0 -102.5 -46.5t-36.5 -131.5v-259h-80z" />
    <glyph glyph-name="o" unicode="o" horiz-adv-x="580" 
d="M291 -12q-73 0 -129.5 33.5t-88.5 92.5t-32 136t31.5 136t88 92.5t128.5 33.5q74 0 130.5 -33.5t88 -92.5t31.5 -136t-31.5 -136t-87.5 -92.5t-129 -33.5zM291 62q50 0 87 24t58.5 66t21.5 98t-21.5 98t-59.5 66t-88 24q-49 0 -86.5 -24t-59 -66t-21.5 -98
q0 -55 21.5 -97.5t60 -66.5t87.5 -24z" />
    <glyph glyph-name="p" unicode="p" horiz-adv-x="591" 
d="M75 -200v700h75l4 -85q28 45 71.5 71t98.5 26q67 0 118 -33t79.5 -92t28.5 -137q0 -77 -28.5 -136.5t-79.5 -92.5t-118 -33q-55 0 -98 25.5t-71 70.5v-284h-80zM306 61q47 0 83.5 24t58 67t21.5 98t-20.5 98t-57.5 67t-84 24q-44 0 -78.5 -24t-54 -67t-19.5 -98t19.5 -98
t53.5 -67t78 -24z" />
    <glyph glyph-name="q" unicode="q" horiz-adv-x="578" 
d="M436 -200v284q-27 -45 -70.5 -70.5t-98.5 -25.5q-67 0 -118 33t-79.5 92.5t-28.5 136.5q0 78 28.5 137t79.5 92t118 33q55 0 98.5 -26t70.5 -71l4 85h76v-700h-80zM285 61q44 0 78 24t53.5 67t19.5 98t-19.5 98t-53.5 67t-79 24q-47 0 -83.5 -24t-57.5 -67t-21 -98
t21 -98t58 -67t84 -24z" />
    <glyph glyph-name="r" unicode="r" horiz-adv-x="338" 
d="M70 0v500h80v-89q30 47 77.5 69t99.5 22v-75q-44 0 -84.5 -14.5t-66.5 -47.5t-26 -90v-275h-80z" />
    <glyph glyph-name="s" unicode="s" horiz-adv-x="466" 
d="M245 -12q-55 0 -96 16.5t-68.5 43.5t-39.5 59l70 29q17 -34 51 -55t75 -21q47 0 79 18.5t32 52.5q0 31 -23.5 50t-69.5 31l-48 13q-68 18 -106 54.5t-38 82.5q0 71 46.5 110.5t138.5 39.5q44 0 80 -13t62 -36.5t38 -55.5l-70 -31q-13 34 -43 49t-73 15q-46 0 -72 -19.5
t-26 -54.5q0 -20 21.5 -37.5t63.5 -28.5l50 -13q49 -12 82 -35.5t50 -53.5t17 -64q0 -45 -24 -78t-65 -50.5t-94 -17.5z" />
    <glyph glyph-name="t" unicode="t" horiz-adv-x="378" 
d="M258 -12q-73 0 -113 38t-40 107v296h-87v71h87v156h80v-156h150v-71h-150v-288q0 -38 20.5 -58.5t57.5 -20.5q12 0 23.5 3.5t30.5 17.5l31 -65q-26 -17 -47 -23.5t-43 -6.5z" />
    <glyph glyph-name="u" unicode="u" horiz-adv-x="558" 
d="M251 -12q-58 0 -101.5 23.5t-68 75t-24.5 133.5v280h80v-256q0 -74 17 -113t47.5 -53.5t68.5 -14.5q65 0 101.5 47t36.5 131v259h80v-500h-75l-4 75q-25 -42 -65 -64.5t-93 -22.5z" />
    <glyph glyph-name="v" unicode="v" horiz-adv-x="520" 
d="M218 0l-209 500h83l168 -407l167 407h84l-209 -500h-84z" />
    <glyph glyph-name="w" unicode="w" horiz-adv-x="784" 
d="M180 0l-170 500h81l130 -388l132 388h80l130 -385l130 385h81l-170 -500h-80l-131 391l-132 -391h-81z" />
    <glyph glyph-name="x" unicode="x" horiz-adv-x="475" 
d="M10 0l185 259l-172 241h95l121 -176l119 176h95l-169 -242l181 -258h-96l-130 194l-132 -194h-97z" />
    <glyph glyph-name="y" unicode="y" horiz-adv-x="526" 
d="M115 -212q-19 0 -44 7.5t-53 19.5l30 67q23 -10 40.5 -15t27.5 -5q27 0 44.5 14.5t29.5 41.5l34 84l-215 498h85l170 -405l168 405h86l-240 -570q-19 -44 -39.5 -76t-49.5 -49t-74 -17z" />
    <glyph glyph-name="z" unicode="z" horiz-adv-x="491" 
d="M45 0v64l295 366h-295v70h399v-62l-296 -368h298v-70h-401z" />
    <glyph glyph-name="braceleft" unicode="{" horiz-adv-x="385" 
d="M58 339v43q40 0 61 11t29.5 39t8.5 80q0 86 7 142t26 88t52.5 45t84.5 13v-71q-37 -1 -56.5 -19.5t-27.5 -64.5t-8 -132q0 -69 -14.5 -107t-53 -52.5t-109.5 -14.5zM327 -100q-51 0 -84.5 13t-52.5 45t-26 88t-7 142q0 52 -8.5 80t-29.5 39t-61 11v43q71 0 109.5 -14.5
t53 -52t14.5 -107.5q0 -85 8 -131.5t28 -65t56 -19.5v-71z" />
    <glyph glyph-name="bar" unicode="|" horiz-adv-x="257" 
d="M93 -220v1010h71v-1010h-71z" />
    <glyph glyph-name="braceright" unicode="}" horiz-adv-x="385" 
d="M327 339q-70 0 -109 14.5t-53.5 52.5t-14.5 107q0 86 -7.5 132t-27.5 64.5t-57 19.5v71q52 0 85 -13t52 -45t26.5 -88t7.5 -142q0 -52 8 -80t29.5 -39t60.5 -11v-43zM58 -100v71q37 1 57 19.5t27.5 65t7.5 131.5q0 70 14.5 107.5t53.5 52t109 14.5v-43q-39 0 -60.5 -11
t-29.5 -39t-8 -80q0 -86 -7.5 -142t-26.5 -88t-52 -45t-85 -13z" />
    <glyph glyph-name="asciitilde" unicode="~" horiz-adv-x="567" 
d="M378 222q-28 0 -49.5 8t-37.5 22t-31 31q-22 26 -38 39t-32 13q-27 0 -42 -20t-21 -53h-69q3 41 19.5 75t45.5 54t66 20q39 0 69.5 -17t51.5 -46q14 -15 31.5 -32.5t35.5 -17.5q27 0 42 20t21 53h69q-3 -42 -20 -75.5t-45 -53.5t-66 -20z" />
    <glyph glyph-name="uni00A0" unicode="&#xa0;" horiz-adv-x="247" 
 />
    <glyph glyph-name="exclamdown" unicode="&#xa1;" horiz-adv-x="294" 
d="M190 295l2 -497h-87l3 497h82zM149 512q23 0 39 -16.5t16 -39.5q0 -22 -16 -38.5t-39 -16.5t-39.5 16.5t-16.5 38.5q0 23 16.5 39.5t39.5 16.5z" />
    <glyph glyph-name="cent" unicode="&#xa2;" horiz-adv-x="536" 
d="M258 0v700h60v-700h-60zM293 98q-74 0 -131 33.5t-89 92.5t-32 136t31.5 136t88.5 92.5t130 33.5q72 0 129 -33t87 -93l-73 -33q-20 40 -58 62.5t-87 22.5t-86.5 -24t-59 -66.5t-21.5 -97.5t21.5 -97.5t60 -66.5t87.5 -24t87.5 25t58.5 70l73 -33q-30 -64 -87 -100
t-130 -36z" />
    <glyph glyph-name="sterling" unicode="&#xa3;" horiz-adv-x="576" 
d="M48 0v77h26q21 0 36 18t15 43v150h-77v72h77v152q0 61 26 106t72 69.5t106 24.5q59 0 104 -24t71 -69t26 -111l-83 10q0 54 -33 87t-85 33q-53 0 -87 -35t-34 -91v-152h201v-72h-201v-135q0 -44 -18 -76h340v-77h-482z" />
    <glyph glyph-name="currency" unicode="&#xa4;" horiz-adv-x="555" 
d="M280 179q-48 0 -87.5 23.5t-62 62t-22.5 85.5q0 46 22.5 83.5t62 60.5t87.5 23q49 0 87.5 -23t62 -60.5t23.5 -83.5q0 -47 -23 -85.5t-62 -62t-88 -23.5zM126 150l-49 49l83 83l51 -47zM280 249q44 0 70 27.5t26 73.5q0 44 -26 70t-70 26q-43 0 -69 -26t-26 -70
q0 -46 26 -73.5t69 -27.5zM163 417l-86 85l48 50l88 -86zM429 150l-74 75l50 48l73 -74zM397 424l-51 47l83 81l49 -50z" />
    <glyph glyph-name="yen" unicode="&#xa5;" horiz-adv-x="543" 
d="M312 294l-71 32l198 384h95zM229 0v336h85v-336h-85zM90 189v59h363v-59h-363zM90 294v59h363v-59h-363zM230 294l-221 416h94l198 -384z" />
    <glyph glyph-name="brokenbar" unicode="&#xa6;" horiz-adv-x="271" 
d="M100 350v440h71v-440h-71zM100 -220v440h71v-440h-71z" />
    <glyph glyph-name="section" unicode="&#xa7;" horiz-adv-x="570" 
d="M292 -90q-57 0 -99.5 17t-68.5 44.5t-36 58.5l72 25q12 -33 44 -56t79 -23q57 0 89 23t32 60q0 34 -28 56t-75 33l-62 15q-56 15 -94 50t-38 93q0 74 48 115t137 41q51 0 87 -17t59 -44t33 -59l-62 -22q-13 34 -50.5 55t-78.5 21q-45 0 -71 -23.5t-26 -62.5
q0 -33 22 -51.5t58 -27.5l62 -15q75 -19 115.5 -61t40.5 -92q0 -65 -48 -109t-141 -44zM289 160q-50 0 -87.5 17.5t-60.5 46.5t-31 61l47 20q8 -20 27.5 -37.5t46.5 -28t59 -10.5q51 0 81 22t30 58q0 34 -28.5 55.5t-75.5 33.5l-61 16q-56 15 -94.5 49.5t-38.5 92.5
q0 74 48.5 115t137.5 41q52 0 90 -16.5t62.5 -43t35.5 -58.5l-71 -24q-13 34 -44.5 55t-77.5 21q-49 0 -76.5 -23.5t-27.5 -61.5q0 -34 22 -52.5t58 -26.5l61 -15q76 -19 116 -61.5t40 -92.5q0 -65 -48 -109t-140 -44z" />
    <glyph glyph-name="dieresis" unicode="&#xa8;" horiz-adv-x="439" 
d="M343 620q-20 0 -34 14.5t-14 33.5q0 20 14 34t34 14t34 -14t14 -34q0 -19 -14 -33.5t-34 -14.5zM96 620q-19 0 -33.5 14t-14.5 34t14.5 34t33.5 14q20 0 34 -14t14 -34t-14 -34t-34 -14z" />
    <glyph glyph-name="copyright" unicode="&#xa9;" horiz-adv-x="815" 
d="M408 -11q-76 0 -141.5 27.5t-115.5 77t-77.5 115t-27.5 141.5t27.5 141.5t77.5 115.5t115.5 77.5t141.5 27.5q75 0 141 -27.5t115 -77.5t77 -115.5t28 -141.5t-28 -141.5t-77 -115t-115 -77t-141 -27.5zM406 152q-54 0 -96 25t-66 69.5t-24 103.5t24 103.5t65.5 69.5
t95.5 25q49 0 92.5 -26t64.5 -67l13 -27l-61 -24l-13 21q-13 25 -40 40.5t-56 15.5q-51 0 -83.5 -36.5t-32.5 -94.5t33 -94.5t84 -36.5q30 0 56.5 17.5t41.5 45.5l10 20l64 -24l-12 -25q-23 -45 -67 -73t-93 -28zM408 54q84 0 149.5 38t103 105t37.5 153q0 87 -37.5 154
t-103 105t-149.5 38t-150 -38t-103.5 -105t-37.5 -154q0 -86 37.5 -153t103.5 -105t150 -38z" />
    <glyph glyph-name="ordfeminine" unicode="&#xaa;" horiz-adv-x="331" 
d="M228 400l-5 154q-1 31 -6.5 51.5t-20 32t-41.5 11.5q-23 0 -37.5 -9.5t-24.5 -25.5l-63 22q20 34 51.5 52.5t74.5 18.5q67 0 101.5 -37.5t34.5 -105.5v-164h-64zM140 393q-53 0 -82.5 24.5t-29.5 67.5q0 45 29.5 69t82.5 24h100v-47h-78q-64 0 -64 -46q0 -18 14 -28.5
t39 -10.5q33 0 52 21.5t19 55.5l32 5q0 -63 -30 -99t-84 -36z" />
    <glyph glyph-name="guillemotleft" unicode="&#xab;" horiz-adv-x="551" 
d="M397 96l-155 202l155 202h97l-153 -202l153 -202h-97zM204 96l-155 202l155 202h97l-153 -202l153 -202h-97z" />
    <glyph glyph-name="logicalnot" unicode="&#xac;" 
d="M130 293v72h362v-72h-362zM420 190v175h72v-175h-72z" />
    <glyph glyph-name="registered" unicode="&#xae;" 
d="M311 171q-55 0 -104.5 21t-86.5 58t-58 86.5t-21 104.5q0 57 21 106t58 86t86.5 58t104.5 21q57 0 106 -21t86 -58t58 -86t21 -106q0 -55 -21 -104.5t-58 -86.5t-86 -58t-106 -21zM311 227q63 0 111 27t75 75.5t27 111.5q0 64 -27 112t-75 75.5t-111 27.5
q-62 0 -110 -27.5t-75 -75.5t-27 -112q0 -63 27 -111.5t75 -75.5t110 -27zM210 299v292h105q45 0 74 -25.5t29 -67.5q0 -28 -15.5 -50t-41.5 -33l69 -116h-59l-60 106h-49v-106h-52zM262 453h55q20 0 33.5 12.5t13.5 32.5q0 21 -14 33.5t-37 12.5h-51v-91z" />
    <glyph glyph-name="macron" unicode="&#xaf;" horiz-adv-x="300" 
d="M-3 575v73h306v-73h-306z" />
    <glyph glyph-name="degree" unicode="&#xb0;" horiz-adv-x="369" 
d="M184 442q-37 0 -68.5 19t-50 51t-18.5 69t18.5 67.5t50 48.5t68.5 18t69 -18t50.5 -48.5t18.5 -67.5t-18.5 -69t-50.5 -51t-69 -19zM184 506q28 0 48 22.5t20 52.5q0 29 -20 49.5t-48 20.5q-27 0 -47 -20.5t-20 -49.5q0 -30 20 -52.5t47 -22.5z" />
    <glyph glyph-name="plusminus" unicode="&#xb1;" 
d="M85 316v70h453v-70h-453zM85 5v63h453v-63h-453zM277 146v411h71v-411h-71z" />
    <glyph glyph-name="uni00B2" unicode="&#xb2;" horiz-adv-x="361" 
d="M108 427l-72 8q0 18 10 38.5t28.5 41t42.5 38.5l70 51q20 15 36 35t16 40q0 27 -18.5 44.5t-51.5 17.5q-30 0 -49 -17.5t-26 -39.5l-74 14q6 29 26 53.5t51 40t71 15.5q67 0 106.5 -35.5t39.5 -91.5q0 -38 -20.5 -67t-56.5 -57l-69 -50q-14 -10 -27.5 -24t-22 -28.5
t-10.5 -26.5zM36 380v55l55 10h228v-65h-283z" />
    <glyph glyph-name="uni00B3" unicode="&#xb3;" horiz-adv-x="354" 
d="M181 373q-55 0 -91.5 24t-48.5 60l66 22q11 -17 26.5 -30t42.5 -13q33 0 52.5 19t19.5 48q0 20 -10.5 35t-32.5 23.5t-56 8.5h-22v51h19q49 0 89 -15t63.5 -43t23.5 -68q0 -38 -19.5 -65.5t-51.5 -42t-70 -14.5zM127 581v50h22q44 0 67.5 14.5t23.5 42.5q0 23 -17.5 39.5
t-47.5 16.5q-19 0 -36.5 -9.5t-29.5 -31.5l-64 22q10 26 29.5 44.5t46.5 28t57 9.5q39 0 69 -14.5t48 -40t18 -58.5q0 -37 -23 -62t-61.5 -38t-82.5 -13h-19z" />
    <glyph glyph-name="acute" unicode="&#xb4;" horiz-adv-x="221" 
d="M1 571l117 129h103l-129 -129h-91z" />
    <glyph glyph-name="uni00B5" unicode="&#xb5;" horiz-adv-x="558" 
d="M262 -12q-78 0 -124.5 56t-45.5 170l45 30q0 -74 17 -113t47.5 -53.5t68.5 -14.5q65 0 101.5 47t36.5 131h39q0 -119 -47 -186t-138 -67zM57 -200v700h80v-422l-4 -1v-277h-76zM413 0l-5 92v408h80v-500h-75z" />
    <glyph glyph-name="paragraph" unicode="&#xb6;" horiz-adv-x="546" 
d="M236 257q-62 0 -109 28.5t-74 78.5t-27 114q0 66 27 116t74 78t109 28h55v-443h-55zM258 -84v784h73v-784h-73zM380 -84v784h73v-784h-73zM329 623v77h61v-77h-61z" />
    <glyph glyph-name="periodcentered" unicode="&#xb7;" horiz-adv-x="254" 
d="M127 270q-23 0 -39.5 16.5t-16.5 38.5q0 23 16.5 39.5t39.5 16.5t39 -16.5t16 -39.5q0 -22 -16 -38.5t-39 -16.5z" />
    <glyph glyph-name="cedilla" unicode="&#xb8;" horiz-adv-x="214" 
d="M106 -210q-19 0 -42 5t-54 22l20 48q15 -7 32.5 -14t31.5 -7q18 0 32.5 7t14.5 29q0 25 -18.5 37.5t-57.5 18.5l30 70l53 -12l-11 -26q37 -13 52.5 -36.5t15.5 -49.5q0 -39 -23.5 -65.5t-75.5 -26.5z" />
    <glyph glyph-name="uni00B9" unicode="&#xb9;" horiz-adv-x="281" 
d="M132 380v381l7 39h63v-420h-70zM42 675v65q20 0 47 18t50 42l46 -46q-36 -38 -71 -60t-72 -19z" />
    <glyph glyph-name="ordmasculine" unicode="&#xba;" horiz-adv-x="365" 
d="M183 393q-45 0 -80 20t-55 55.5t-20 81.5t20 81.5t55 55.5t79 20q69 0 112 -44t43 -113q0 -46 -20 -81.5t-54.5 -55.5t-79.5 -20zM183 457q37 0 59.5 26t22.5 67t-23 67t-60 26q-36 0 -59 -26t-23 -67t23.5 -67t59.5 -26z" />
    <glyph glyph-name="guillemotright" unicode="&#xbb;" horiz-adv-x="551" 
d="M154 96h-97l153 202l-153 202h97l155 -202zM347 96h-96l153 202l-153 202h96l155 -202z" />
    <glyph glyph-name="onequarter" unicode="&#xbc;" horiz-adv-x="828" 
d="M132 280v381l7 39h63v-420h-70zM42 575v65q20 0 47 18t50 42l46 -46q-36 -38 -71 -60t-72 -19zM108 0l481 700h82l-481 -700h-82zM519 116l-53 30l188 274l44 -41zM466 88v58l43 5h298v-63h-341zM661 0v379l-7 41h76v-420h-69z" />
    <glyph glyph-name="onehalf" unicode="&#xbd;" horiz-adv-x="860" 
d="M132 280v381l7 39h63v-420h-70zM42 575v65q20 0 47 18t50 42l46 -46q-36 -38 -71 -60t-72 -19zM108 0l481 700h82l-481 -700h-82zM607 47l-72 8q0 18 10 38.5t28.5 41t42.5 38.5l70 51q20 15 36 35t16 40q0 27 -18.5 44.5t-51.5 17.5q-30 0 -49 -17.5t-26 -39.5l-74 14
q6 29 26 53.5t51 40t71 15.5q67 0 106.5 -35.5t39.5 -91.5q0 -38 -20.5 -67t-56.5 -57l-69 -50q-14 -10 -27.5 -24t-22 -28.5t-10.5 -26.5zM535 0v55l55 10h228v-65h-283z" />
    <glyph glyph-name="threequarters" unicode="&#xbe;" horiz-adv-x="901" 
d="M181 273q-55 0 -91.5 24t-48.5 60l66 22q11 -17 26.5 -30t42.5 -13q33 0 52.5 19t19.5 48q0 20 -10.5 35t-32.5 23.5t-56 8.5h-22v51h19q49 0 89 -15t63.5 -43t23.5 -68q0 -38 -19.5 -65.5t-51.5 -42t-70 -14.5zM127 481v50h22q44 0 67.5 14.5t23.5 42.5q0 23 -17.5 39.5
t-47.5 16.5q-19 0 -36.5 -9.5t-29.5 -31.5l-64 22q10 26 29.5 44.5t46.5 28t57 9.5q39 0 69 -14.5t48 -40t18 -58.5q0 -37 -23 -62t-61.5 -38t-82.5 -13h-19zM181 0l481 700h82l-481 -700h-82zM592 116l-53 30l188 274l44 -41zM539 88v58l43 5h298v-63h-341zM734 0v379
l-7 41h76v-420h-69z" />
    <glyph glyph-name="questiondown" unicode="&#xbf;" horiz-adv-x="463" 
d="M299 311l1 -179l-52 -1q-66 -1 -108 -37.5t-42 -99.5q0 -58 40 -95t102 -37q46 0 80.5 21.5t46.5 53.5l76 -24q-19 -56 -72.5 -91t-130.5 -35q-65 0 -115.5 26.5t-79.5 73.5t-29 107q0 58 25.5 101.5t71 70t104.5 30.5l1 115h81zM259 513q23 0 39 -16t16 -40
q0 -23 -16 -39t-39 -16q-24 0 -40 16t-16 39q0 24 16 40t40 16z" />
    <glyph glyph-name="Agrave" unicode="&#xc0;" horiz-adv-x="677" 
d="M9 0l285 700h88l285 -700h-89l-81 199h-317l-81 -199h-90zM209 275h258l-129 319zM351 746l-130 130h102l120 -130h-92z" />
    <glyph glyph-name="Aacute" unicode="&#xc1;" horiz-adv-x="677" 
d="M9 0l285 700h88l285 -700h-89l-81 199h-317l-81 -199h-90zM209 275h258l-129 319zM270 742l118 123h102l-128 -123h-92z" />
    <glyph glyph-name="Acircumflex" unicode="&#xc2;" horiz-adv-x="677" 
d="M9 0l285 700h88l285 -700h-89l-81 199h-317l-81 -199h-90zM209 275h258l-129 319zM419 757l-131 127v3h98l121 -130h-88zM166 757l121 130h98v-3l-131 -127h-88z" />
    <glyph glyph-name="Atilde" unicode="&#xc3;" horiz-adv-x="677" 
d="M9 0l285 700h88l285 -700h-89l-81 199h-317l-81 -199h-90zM209 275h258l-129 319zM421 741q-29 0 -47 11t-29.5 25t-21.5 25t-23 11q-16 0 -24.5 -8.5t-13.5 -29.5h-65q3 27 15.5 50.5t35 37.5t51.5 14q28 0 45 -11t29 -25t22.5 -25t25.5 -11q17 0 25 10t11 28h64
q-5 -40 -30 -71t-70 -31z" />
    <glyph glyph-name="Adieresis" unicode="&#xc4;" horiz-adv-x="677" 
d="M9 0l285 700h88l285 -700h-89l-81 199h-317l-81 -199h-90zM209 275h258l-129 319zM462 795q-20 0 -34 14.5t-14 33.5q0 20 14 34t34 14t34 -14t14 -34q0 -19 -14 -33.5t-34 -14.5zM215 795q-19 0 -33.5 14t-14.5 34t14.5 34t33.5 14q20 0 34 -14t14 -34t-14 -34t-34 -14z
" />
    <glyph glyph-name="Aring" unicode="&#xc5;" horiz-adv-x="677" 
d="M9 0l285 700h88l285 -700h-89l-81 199h-317l-81 -199h-90zM209 275h258l-129 319zM339 732q-26 0 -48 12.5t-35.5 33.5t-13.5 46q0 26 13.5 47t35 33.5t48.5 12.5q26 0 48 -12.5t34.5 -33.5t12.5 -47q0 -25 -12.5 -46t-34.5 -33.5t-48 -12.5zM339 786q36 0 36 38
q0 39 -36 39q-37 0 -37 -39q0 -38 37 -38z" />
    <glyph glyph-name="AE" unicode="&#xc6;" horiz-adv-x="1001" 
d="M9 0l427 700h481v-77h-329v-226h300v-76h-300v-244h330v-77h-415v199h-277l-121 -199h-96zM270 275h233v348h-21z" />
    <glyph glyph-name="Ccedilla" unicode="&#xc7;" horiz-adv-x="721" 
d="M388 -12q-100 0 -177 46.5t-121 128t-44 187.5t43.5 187.5t120 128t175.5 46.5q63 0 121 -22.5t104 -63t71 -93.5l-73 -37q-20 42 -55 73t-78 48.5t-90 17.5q-73 0 -131 -36.5t-90.5 -100.5t-32.5 -148t33 -149t91.5 -101.5t132.5 -36.5q48 0 91 19.5t77.5 53.5t54.5 78
l74 -37q-26 -55 -71.5 -98t-104 -67t-121.5 -24zM357 -210q-19 0 -42 5t-54 22l20 48q15 -7 32.5 -14t31.5 -7q18 0 32.5 7t14.5 29q0 25 -18.5 37.5t-57.5 18.5l30 70l53 -12l-11 -26q37 -13 52.5 -36.5t15.5 -49.5q0 -39 -23.5 -65.5t-75.5 -26.5z" />
    <glyph glyph-name="Egrave" unicode="&#xc8;" horiz-adv-x="592" 
d="M93 0v700h414v-77h-329v-226h300v-76h-300v-244h331v-77h-416zM317 746l-130 130h102l120 -130h-92z" />
    <glyph glyph-name="Eacute" unicode="&#xc9;" horiz-adv-x="592" 
d="M93 0v700h414v-77h-329v-226h300v-76h-300v-244h331v-77h-416zM236 742l118 123h103l-129 -123h-92z" />
    <glyph glyph-name="Ecircumflex" unicode="&#xca;" horiz-adv-x="592" 
d="M93 0v700h414v-77h-329v-226h300v-76h-300v-244h331v-77h-416zM386 757l-131 127v3h98l121 -130h-88zM133 757l121 130h98v-3l-131 -127h-88z" />
    <glyph glyph-name="Edieresis" unicode="&#xcb;" horiz-adv-x="592" 
d="M93 0v700h414v-77h-329v-226h300v-76h-300v-244h331v-77h-416zM428 795q-20 0 -34 14.5t-14 33.5q0 20 14 34t34 14t34 -14t14 -34q0 -19 -14 -33.5t-34 -14.5zM181 795q-19 0 -33.5 14t-14.5 34t14.5 34t33.5 14q20 0 34 -14t14 -34t-14 -34t-34 -14z" />
    <glyph glyph-name="Igrave" unicode="&#xcc;" horiz-adv-x="271" 
d="M93 0v700h85v-700h-85zM148 746l-130 130h102l120 -130h-92z" />
    <glyph glyph-name="Iacute" unicode="&#xcd;" horiz-adv-x="271" 
d="M93 0v700h85v-700h-85zM68 742l117 123h103l-129 -123h-91z" />
    <glyph glyph-name="Icircumflex" unicode="&#xce;" horiz-adv-x="271" 
d="M93 0v700h85v-700h-85zM217 757l-131 127v3h98l121 -130h-88zM-36 757l121 130h98v-3l-131 -127h-88z" />
    <glyph glyph-name="Idieresis" unicode="&#xcf;" horiz-adv-x="275" 
d="M205 795q-19 0 -33.5 14.5t-14.5 33.5q0 20 14.5 34t33.5 14q20 0 34 -14t14 -34q0 -19 -14 -33.5t-34 -14.5zM71 795q-20 0 -34 14t-14 34t14 34t34 14t34 -14t14 -34t-14 -34t-34 -14zM93 0v700h85v-700h-85z" />
    <glyph glyph-name="Eth" unicode="&#xd0;" horiz-adv-x="751" 
d="M73 314v70h319v-70h-319zM157 0v700h213q98 0 173.5 -44.5t118.5 -123.5t43 -182q0 -102 -43 -181t-118.5 -124t-173.5 -45h-213zM241 78h129q52 0 97.5 20.5t80 58.5t53.5 87.5t19 105.5t-19 105.5t-53.5 87.5t-80 58.5t-97.5 20.5h-129v-544z" />
    <glyph glyph-name="Ntilde" unicode="&#xd1;" horiz-adv-x="774" 
d="M93 0v700h86l417 -562v562h85v-700h-85l-418 565v-565h-85zM464 738q-29 0 -47 11t-29.5 25t-21.5 25t-23 11q-16 0 -24.5 -8.5t-13.5 -29.5h-65q3 27 15.5 50.5t35 37.5t51.5 14q28 0 45 -11t29 -25t22.5 -25t25.5 -11q17 0 25 10t11 28h64q-5 -40 -30 -71t-70 -31z" />
    <glyph glyph-name="Ograve" unicode="&#xd2;" horiz-adv-x="776" 
d="M391 -12q-101 0 -179 46t-122 128t-44 188q0 107 43.5 188.5t120.5 127.5t178 46t178.5 -46.5t120.5 -128t43 -187.5t-43 -188t-119.5 -128t-176.5 -46zM391 65q75 0 132 36.5t89.5 100.5t32.5 148q0 83 -33 147.5t-90.5 101t-133.5 36.5q-75 0 -133 -36.5t-91 -101
t-33 -147.5q0 -84 33 -148t92 -100.5t135 -36.5zM401 746l-130 130h102l120 -130h-92z" />
    <glyph glyph-name="Oacute" unicode="&#xd3;" horiz-adv-x="776" 
d="M391 -12q-101 0 -179 46t-122 128t-44 188q0 107 43.5 188.5t120.5 127.5t178 46t178.5 -46.5t120.5 -128t43 -187.5t-43 -188t-119.5 -128t-176.5 -46zM391 65q75 0 132 36.5t89.5 100.5t32.5 148q0 83 -33 147.5t-90.5 101t-133.5 36.5q-75 0 -133 -36.5t-91 -101
t-33 -147.5q0 -84 33 -148t92 -100.5t135 -36.5zM317 742l123 123h107l-134 -123h-96z" />
    <glyph glyph-name="Ocircumflex" unicode="&#xd4;" horiz-adv-x="776" 
d="M391 -12q-101 0 -179 46t-122 128t-44 188q0 107 43.5 188.5t120.5 127.5t178 46t178.5 -46.5t120.5 -128t43 -187.5t-43 -188t-119.5 -128t-176.5 -46zM391 65q75 0 132 36.5t89.5 100.5t32.5 148q0 83 -33 147.5t-90.5 101t-133.5 36.5q-75 0 -133 -36.5t-91 -101
t-33 -147.5q0 -84 33 -148t92 -100.5t135 -36.5zM469 757l-131 127v3h98l121 -130h-88zM216 757l121 130h98v-3l-131 -127h-88z" />
    <glyph glyph-name="Otilde" unicode="&#xd5;" horiz-adv-x="776" 
d="M391 -12q-101 0 -179 46t-122 128t-44 188q0 107 43.5 188.5t120.5 127.5t178 46t178.5 -46.5t120.5 -128t43 -187.5t-43 -188t-119.5 -128t-176.5 -46zM391 65q75 0 132 36.5t89.5 100.5t32.5 148q0 83 -33 147.5t-90.5 101t-133.5 36.5q-75 0 -133 -36.5t-91 -101
t-33 -147.5q0 -84 33 -148t92 -100.5t135 -36.5zM470 741q-29 0 -47 11t-29.5 25t-21.5 25t-23 11q-16 0 -24.5 -8.5t-13.5 -29.5h-65q3 27 15.5 50.5t35 37.5t51.5 14q28 0 45 -11t29 -25t22.5 -25t25.5 -11q17 0 25 10t11 28h64q-5 -40 -30 -71t-70 -31z" />
    <glyph glyph-name="Odieresis" unicode="&#xd6;" horiz-adv-x="776" 
d="M391 -12q-101 0 -179 46t-122 128t-44 188q0 107 43.5 188.5t120.5 127.5t178 46t178.5 -46.5t120.5 -128t43 -187.5t-43 -188t-119.5 -128t-176.5 -46zM391 65q75 0 132 36.5t89.5 100.5t32.5 148q0 83 -33 147.5t-90.5 101t-133.5 36.5q-75 0 -133 -36.5t-91 -101
t-33 -147.5q0 -84 33 -148t92 -100.5t135 -36.5zM512 795q-20 0 -34 14.5t-14 33.5q0 20 14 34t34 14t34 -14t14 -34q0 -19 -14 -33.5t-34 -14.5zM265 795q-19 0 -33.5 14t-14.5 34t14.5 34t33.5 14q20 0 34 -14t14 -34t-14 -34t-34 -14z" />
    <glyph glyph-name="multiply" unicode="&#xd7;" 
d="M456 104l-338 338l48 50l340 -339zM166 104l-48 49l338 339l50 -50z" />
    <glyph glyph-name="Oslash" unicode="&#xd8;" horiz-adv-x="784" 
d="M41 0l610 700h92l-612 -700h-90zM394 -12q-101 0 -178.5 46t-122 128t-44.5 188q0 107 44 188.5t121 127.5t177 46q101 0 178.5 -46.5t121 -128t43.5 -187.5t-43.5 -188t-120 -128t-176.5 -46zM394 65q75 0 132 36.5t90 100.5t33 148q0 83 -33.5 147.5t-91 101
t-133.5 36.5q-74 0 -132.5 -36.5t-91.5 -101t-33 -147.5q0 -84 33.5 -148t92.5 -100.5t134 -36.5z" />
    <glyph glyph-name="Ugrave" unicode="&#xd9;" horiz-adv-x="707" 
d="M351 -15q-79 0 -139.5 33.5t-94.5 93t-34 137.5v451h85v-451q0 -55 23.5 -97.5t65.5 -66t96 -23.5q55 0 97.5 23.5t66 66t23.5 97.5v451h84v-451q0 -78 -34 -137.5t-96 -93t-143 -33.5zM367 746l-130 130h102l120 -130h-92z" />
    <glyph glyph-name="Uacute" unicode="&#xda;" horiz-adv-x="707" 
d="M351 -15q-79 0 -139.5 33.5t-94.5 93t-34 137.5v451h85v-451q0 -55 23.5 -97.5t65.5 -66t96 -23.5q55 0 97.5 23.5t66 66t23.5 97.5v451h84v-451q0 -78 -34 -137.5t-96 -93t-143 -33.5zM286 745l117 128h103l-128 -128h-92z" />
    <glyph glyph-name="Ucircumflex" unicode="&#xdb;" horiz-adv-x="707" 
d="M351 -15q-79 0 -139.5 33.5t-94.5 93t-34 137.5v451h85v-451q0 -55 23.5 -97.5t65.5 -66t96 -23.5q55 0 97.5 23.5t66 66t23.5 97.5v451h84v-451q0 -78 -34 -137.5t-96 -93t-143 -33.5zM435 757l-131 127v3h98l121 -130h-88zM182 757l121 130h98v-3l-131 -127h-88z" />
    <glyph glyph-name="Udieresis" unicode="&#xdc;" horiz-adv-x="707" 
d="M351 -15q-79 0 -139.5 33.5t-94.5 93t-34 137.5v451h85v-451q0 -55 23.5 -97.5t65.5 -66t96 -23.5q55 0 97.5 23.5t66 66t23.5 97.5v451h84v-451q0 -78 -34 -137.5t-96 -93t-143 -33.5zM478 795q-20 0 -34 14.5t-14 33.5q0 20 14 34t34 14t34 -14t14 -34q0 -19 -14 -33.5
t-34 -14.5zM231 795q-19 0 -33.5 14t-14.5 34t14.5 34t33.5 14q20 0 34 -14t14 -34t-14 -34t-34 -14z" />
    <glyph glyph-name="Yacute" unicode="&#xdd;" horiz-adv-x="604" 
d="M260 0v293l-251 407h98l195 -321l196 321h97l-251 -407v-293h-84zM234 741l117 129h103l-129 -129h-91z" />
    <glyph glyph-name="Thorn" unicode="&#xde;" horiz-adv-x="583" 
d="M95 1v700h85v-118h143q68 0 121 -28t82.5 -78.5t29.5 -115.5q0 -64 -27 -114.5t-74.5 -79t-108.5 -28.5h-166v-138h-85zM180 217h164q56 0 91.5 40t35.5 104q0 65 -42 105t-107 40h-142v-289z" />
    <glyph glyph-name="germandbls" unicode="&#xdf;" horiz-adv-x="564" 
d="M70 0v512q0 61 27.5 106t76 69.5t111.5 24.5t110.5 -24t74.5 -68t27 -103q0 -56 -22 -97t-63 -64q52 -23 79 -66t27 -104q0 -59 -26.5 -100t-75.5 -63.5t-118 -22.5h-50v76h46q67 0 104 30.5t37 82.5q0 58 -37 90t-101 32h-45v86h6q60 0 94.5 14.5t48.5 41.5t14 65
q0 54 -36.5 87t-93.5 33q-58 0 -95 -35t-37 -91v-512h-83z" />
    <glyph glyph-name="agrave" unicode="&#xe0;" horiz-adv-x="509" 
d="M228 -12q-88 0 -137.5 40.5t-49.5 112.5q0 76 50.5 116.5t141.5 40.5h139q-5 71 -35 106.5t-90 35.5q-41 0 -70.5 -16.5t-48.5 -52.5l-72 28q19 35 46 60.5t63 39t82 13.5q70 0 115.5 -27.5t68.5 -81t22 -132.5l-1 -271h-74l-4 67q-22 -38 -59 -58.5t-87 -20.5zM232 58
q43 0 75 18.5t49.5 52.5t17.5 82v20h-123q-70 0 -99.5 -23t-29.5 -66q0 -39 29 -61.5t81 -22.5zM265 571l-130 130h102l120 -130h-92z" />
    <glyph glyph-name="aacute" unicode="&#xe1;" horiz-adv-x="509" 
d="M228 -12q-88 0 -137.5 40.5t-49.5 112.5q0 76 50.5 116.5t141.5 40.5h139q-5 71 -35 106.5t-90 35.5q-41 0 -70.5 -16.5t-48.5 -52.5l-72 28q19 35 46 60.5t63 39t82 13.5q70 0 115.5 -27.5t68.5 -81t22 -132.5l-1 -271h-74l-4 67q-22 -38 -59 -58.5t-87 -20.5zM232 58
q43 0 75 18.5t49.5 52.5t17.5 82v20h-123q-70 0 -99.5 -23t-29.5 -66q0 -39 29 -61.5t81 -22.5zM184 571l117 129h103l-129 -129h-91z" />
    <glyph glyph-name="acircumflex" unicode="&#xe2;" horiz-adv-x="509" 
d="M228 -12q-88 0 -137.5 40.5t-49.5 112.5q0 76 50.5 116.5t141.5 40.5h139q-5 71 -35 106.5t-90 35.5q-41 0 -70.5 -16.5t-48.5 -52.5l-72 28q19 35 46 60.5t63 39t82 13.5q70 0 115.5 -27.5t68.5 -81t22 -132.5l-1 -271h-74l-4 67q-22 -38 -59 -58.5t-87 -20.5zM232 58
q43 0 75 18.5t49.5 52.5t17.5 82v20h-123q-70 0 -99.5 -23t-29.5 -66q0 -39 29 -61.5t81 -22.5zM333 582l-131 127v3h98l121 -130h-88zM80 582l121 130h98v-3l-131 -127h-88z" />
    <glyph glyph-name="atilde" unicode="&#xe3;" horiz-adv-x="509" 
d="M228 -12q-88 0 -137.5 40.5t-49.5 112.5q0 76 50.5 116.5t141.5 40.5h139q-5 71 -35 106.5t-90 35.5q-41 0 -70.5 -16.5t-48.5 -52.5l-72 28q19 35 46 60.5t63 39t82 13.5q70 0 115.5 -27.5t68.5 -81t22 -132.5l-1 -271h-74l-4 67q-22 -38 -59 -58.5t-87 -20.5zM232 58
q43 0 75 18.5t49.5 52.5t17.5 82v20h-123q-70 0 -99.5 -23t-29.5 -66q0 -39 29 -61.5t81 -22.5zM334 566q-29 0 -47 11t-29.5 25t-21.5 25t-23 11q-16 0 -24.5 -8.5t-13.5 -29.5h-65q3 27 15.5 50.5t35 37.5t51.5 14q28 0 45 -11t29 -25t22.5 -25t25.5 -11q17 0 25 10t11 28
h64q-5 -40 -30 -71t-70 -31z" />
    <glyph glyph-name="adieresis" unicode="&#xe4;" horiz-adv-x="509" 
d="M228 -12q-88 0 -137.5 40.5t-49.5 112.5q0 76 50.5 116.5t141.5 40.5h139q-5 71 -35 106.5t-90 35.5q-41 0 -70.5 -16.5t-48.5 -52.5l-72 28q19 35 46 60.5t63 39t82 13.5q70 0 115.5 -27.5t68.5 -81t22 -132.5l-1 -271h-74l-4 67q-22 -38 -59 -58.5t-87 -20.5zM232 58
q43 0 75 18.5t49.5 52.5t17.5 82v20h-123q-70 0 -99.5 -23t-29.5 -66q0 -39 29 -61.5t81 -22.5zM376 620q-20 0 -34 14.5t-14 33.5q0 20 14 34t34 14t34 -14t14 -34q0 -19 -14 -33.5t-34 -14.5zM129 620q-19 0 -33.5 14t-14.5 34t14.5 34t33.5 14q20 0 34 -14t14 -34
t-14 -34t-34 -14z" />
    <glyph glyph-name="aring" unicode="&#xe5;" horiz-adv-x="509" 
d="M228 -12q-88 0 -137.5 40.5t-49.5 112.5q0 76 50.5 116.5t141.5 40.5h139q-5 71 -35 106.5t-90 35.5q-41 0 -70.5 -16.5t-48.5 -52.5l-72 28q19 35 46 60.5t63 39t82 13.5q70 0 115.5 -27.5t68.5 -81t22 -132.5l-1 -271h-74l-4 67q-22 -38 -59 -58.5t-87 -20.5zM232 58
q43 0 75 18.5t49.5 52.5t17.5 82v20h-123q-70 0 -99.5 -23t-29.5 -66q0 -39 29 -61.5t81 -22.5zM252 557q-26 0 -48 12.5t-35.5 33.5t-13.5 46q0 26 13.5 47t35 33.5t48.5 12.5q26 0 48 -12.5t34.5 -33.5t12.5 -47q0 -25 -12.5 -46t-34.5 -33.5t-48 -12.5zM252 611
q36 0 36 38q0 39 -36 39q-37 0 -37 -39q0 -38 37 -38z" />
    <glyph glyph-name="ae" unicode="&#xe6;" horiz-adv-x="878" 
d="M380 177l-7 87q-6 59 -18 98.5t-38.5 59.5t-73.5 20q-44 0 -75 -17.5t-51 -52.5l-72 29q34 55 83 83t116 28q101 0 151 -61t50 -181v-93h-65zM227 -12q-87 0 -136.5 40.5t-49.5 112.5q0 75 49.5 115t136.5 40h182v-63h-163q-66 0 -95.5 -24t-29.5 -67q0 -41 29 -64
t81 -23q66 0 103.5 49.5t37.5 129.5l68 3q0 -114 -56 -181.5t-157 -67.5zM620 -12q-73 0 -129 33.5t-87.5 92.5t-31.5 136t31.5 136t87 92.5t127.5 33.5q70 0 121 -34.5t79 -96.5t28 -146h-393q5 -82 52 -128t119 -46q53 0 89.5 25t56.5 66l69 -35q-19 -39 -50.5 -68
t-74 -45t-94.5 -16zM459 302h301q-3 43 -22.5 74t-50.5 48t-70 17q-38 0 -73 -16.5t-58 -48t-27 -74.5z" />
    <glyph glyph-name="ccedilla" unicode="&#xe7;" horiz-adv-x="541" 
d="M293 -12q-74 0 -131 33.5t-89 92.5t-32 136t31.5 136t88.5 92.5t130 33.5q72 0 129 -33t87 -93l-73 -33q-20 40 -58 62.5t-87 22.5t-86.5 -24t-59 -66.5t-21.5 -97.5t21.5 -97.5t60 -66.5t87.5 -24t87.5 25t58.5 70l73 -33q-30 -64 -87 -100t-130 -36zM262 -210
q-19 0 -42 5t-54 22l20 48q15 -7 32.5 -14t31.5 -7q18 0 32.5 7t14.5 29q0 25 -18.5 37.5t-57.5 18.5l30 70l53 -12l-11 -26q37 -13 52.5 -36.5t15.5 -49.5q0 -39 -23.5 -65.5t-75.5 -26.5z" />
    <glyph glyph-name="egrave" unicode="&#xe8;" horiz-adv-x="547" 
d="M289 -12q-73 0 -129 33.5t-87.5 92.5t-31.5 136t31.5 136t87 92.5t127.5 33.5q70 0 121 -34.5t79 -96.5t28 -146h-393q5 -82 52 -128t119 -46q53 0 89.5 25t56.5 66l69 -35q-19 -39 -50.5 -68t-74 -45t-94.5 -16zM128 302h301q-3 43 -22.5 74t-50.5 48t-70 17
q-38 0 -73 -16.5t-58 -48t-27 -74.5zM300 571l-130 130h102l120 -130h-92z" />
    <glyph glyph-name="eacute" unicode="&#xe9;" horiz-adv-x="547" 
d="M289 -12q-73 0 -129 33.5t-87.5 92.5t-31.5 136t31.5 136t87 92.5t127.5 33.5q70 0 121 -34.5t79 -96.5t28 -146h-393q5 -82 52 -128t119 -46q53 0 89.5 25t56.5 66l69 -35q-19 -39 -50.5 -68t-74 -45t-94.5 -16zM128 302h301q-3 43 -22.5 74t-50.5 48t-70 17
q-38 0 -73 -16.5t-58 -48t-27 -74.5zM220 571l117 129h103l-129 -129h-91z" />
    <glyph glyph-name="ecircumflex" unicode="&#xea;" horiz-adv-x="547" 
d="M289 -12q-73 0 -129 33.5t-87.5 92.5t-31.5 136t31.5 136t87 92.5t127.5 33.5q70 0 121 -34.5t79 -96.5t28 -146h-393q5 -82 52 -128t119 -46q53 0 89.5 25t56.5 66l69 -35q-19 -39 -50.5 -68t-74 -45t-94.5 -16zM128 302h301q-3 43 -22.5 74t-50.5 48t-70 17
q-38 0 -73 -16.5t-58 -48t-27 -74.5zM369 582l-131 127v3h98l121 -130h-88zM116 582l121 130h98v-3l-131 -127h-88z" />
    <glyph glyph-name="edieresis" unicode="&#xeb;" horiz-adv-x="547" 
d="M289 -12q-73 0 -129 33.5t-87.5 92.5t-31.5 136t31.5 136t87 92.5t127.5 33.5q70 0 121 -34.5t79 -96.5t28 -146h-393q5 -82 52 -128t119 -46q53 0 89.5 25t56.5 66l69 -35q-19 -39 -50.5 -68t-74 -45t-94.5 -16zM128 302h301q-3 43 -22.5 74t-50.5 48t-70 17
q-38 0 -73 -16.5t-58 -48t-27 -74.5zM411 620q-20 0 -34 14.5t-14 33.5q0 20 14 34t34 14t34 -14t14 -34q0 -19 -14 -33.5t-34 -14.5zM164 620q-19 0 -33.5 14t-14.5 34t14.5 34t33.5 14q20 0 34 -14t14 -34t-14 -34t-34 -14z" />
    <glyph glyph-name="igrave" unicode="&#xec;" horiz-adv-x="232" 
d="M75 0v500h80v-500h-80zM128 571l-130 130h102l120 -130h-92z" />
    <glyph glyph-name="iacute" unicode="&#xed;" horiz-adv-x="232" 
d="M75 0v500h80v-500h-80zM48 571l117 129h103l-129 -129h-91z" />
    <glyph glyph-name="icircumflex" unicode="&#xee;" horiz-adv-x="232" 
d="M75 0v500h80v-500h-80zM197 582l-131 127v3h98l121 -130h-88zM-56 582l121 130h98v-3l-131 -127h-88z" />
    <glyph glyph-name="idieresis" unicode="&#xef;" horiz-adv-x="232" 
d="M183 620q-19 0 -33.5 14.5t-14.5 33.5q0 20 14.5 34t33.5 14q20 0 34 -14t14 -34q0 -19 -14 -33.5t-34 -14.5zM49 620q-19 0 -33.5 14t-14.5 34t14.5 34t33.5 14q20 0 34 -14t14 -34t-14 -34t-34 -14zM75 0v500h80v-500h-80z" />
    <glyph glyph-name="eth" unicode="&#xf0;" horiz-adv-x="584" 
d="M288 -12q-72 0 -128 32.5t-87.5 90.5t-31.5 133q0 76 30.5 133.5t85.5 90.5t125 33q90 0 150 -66q-13 40 -33 73t-47 60l-72 -47l-30 46l56 35q-62 40 -154 61l16 73q64 -13 115.5 -35t91.5 -54l68 43l28 -45l-55 -35q42 -43 68 -99t37.5 -122t11.5 -141
q0 -77 -31 -135.5t-86.5 -91.5t-127.5 -33zM288 61q49 0 85.5 23.5t57.5 64.5t21 95t-21 95.5t-58.5 65t-86.5 23.5q-48 0 -85 -23.5t-58 -65t-21 -95.5t21.5 -95t59 -64.5t85.5 -23.5z" />
    <glyph glyph-name="ntilde" unicode="&#xf1;" horiz-adv-x="558" 
d="M70 0v500h75l4 -75q25 42 65 64.5t93 22.5q59 0 102.5 -23.5t68 -74.5t23.5 -134v-280h-80v256q0 74 -17 113t-47 53.5t-68 14.5q-66 0 -102.5 -46.5t-36.5 -131.5v-259h-80zM360 566q-29 0 -47 11t-29.5 25t-21.5 25t-23 11q-16 0 -24.5 -8.5t-13.5 -29.5h-65
q3 27 15.5 50.5t35 37.5t51.5 14q28 0 45 -11t29 -25t22.5 -25t25.5 -11q17 0 25 10t11 28h64q-5 -40 -30 -71t-70 -31z" />
    <glyph glyph-name="ograve" unicode="&#xf2;" horiz-adv-x="580" 
d="M291 -12q-73 0 -129.5 33.5t-88.5 92.5t-32 136t31.5 136t88 92.5t128.5 33.5q74 0 130.5 -33.5t88 -92.5t31.5 -136t-31.5 -136t-87.5 -92.5t-129 -33.5zM291 62q50 0 87 24t58.5 66t21.5 98t-21.5 98t-59.5 66t-88 24q-49 0 -86.5 -24t-59 -66t-21.5 -98
q0 -55 21.5 -97.5t60 -66.5t87.5 -24zM302 571l-130 130h102l120 -130h-92z" />
    <glyph glyph-name="oacute" unicode="&#xf3;" horiz-adv-x="580" 
d="M291 -12q-73 0 -129.5 33.5t-88.5 92.5t-32 136t31.5 136t88 92.5t128.5 33.5q74 0 130.5 -33.5t88 -92.5t31.5 -136t-31.5 -136t-87.5 -92.5t-129 -33.5zM291 62q50 0 87 24t58.5 66t21.5 98t-21.5 98t-59.5 66t-88 24q-49 0 -86.5 -24t-59 -66t-21.5 -98
q0 -55 21.5 -97.5t60 -66.5t87.5 -24zM221 571l117 129h103l-129 -129h-91z" />
    <glyph glyph-name="ocircumflex" unicode="&#xf4;" horiz-adv-x="580" 
d="M291 -12q-73 0 -129.5 33.5t-88.5 92.5t-32 136t31.5 136t88 92.5t128.5 33.5q74 0 130.5 -33.5t88 -92.5t31.5 -136t-31.5 -136t-87.5 -92.5t-129 -33.5zM291 62q50 0 87 24t58.5 66t21.5 98t-21.5 98t-59.5 66t-88 24q-49 0 -86.5 -24t-59 -66t-21.5 -98
q0 -55 21.5 -97.5t60 -66.5t87.5 -24zM370 582l-131 127v3h98l121 -130h-88zM117 582l121 130h98v-3l-131 -127h-88z" />
    <glyph glyph-name="otilde" unicode="&#xf5;" horiz-adv-x="580" 
d="M291 -12q-73 0 -129.5 33.5t-88.5 92.5t-32 136t31.5 136t88 92.5t128.5 33.5q74 0 130.5 -33.5t88 -92.5t31.5 -136t-31.5 -136t-87.5 -92.5t-129 -33.5zM291 62q50 0 87 24t58.5 66t21.5 98t-21.5 98t-59.5 66t-88 24q-49 0 -86.5 -24t-59 -66t-21.5 -98
q0 -55 21.5 -97.5t60 -66.5t87.5 -24zM371 566q-29 0 -47 11t-29.5 25t-21.5 25t-23 11q-16 0 -24.5 -8.5t-13.5 -29.5h-65q3 27 15.5 50.5t35 37.5t51.5 14q28 0 45 -11t29 -25t22.5 -25t25.5 -11q17 0 25 10t11 28h64q-5 -40 -30 -71t-70 -31z" />
    <glyph glyph-name="odieresis" unicode="&#xf6;" horiz-adv-x="580" 
d="M291 -12q-73 0 -129.5 33.5t-88.5 92.5t-32 136t31.5 136t88 92.5t128.5 33.5q74 0 130.5 -33.5t88 -92.5t31.5 -136t-31.5 -136t-87.5 -92.5t-129 -33.5zM291 62q50 0 87 24t58.5 66t21.5 98t-21.5 98t-59.5 66t-88 24q-49 0 -86.5 -24t-59 -66t-21.5 -98
q0 -55 21.5 -97.5t60 -66.5t87.5 -24zM413 620q-20 0 -34 14.5t-14 33.5q0 20 14 34t34 14t34 -14t14 -34q0 -19 -14 -33.5t-34 -14.5zM166 620q-19 0 -33.5 14t-14.5 34t14.5 34t33.5 14q20 0 34 -14t14 -34t-14 -34t-34 -14z" />
    <glyph glyph-name="divide" unicode="&#xf7;" 
d="M117 262v71h389v-71h-389zM312 99q-18 0 -32 13.5t-14 32.5t14 32t32 13q19 0 32 -13t13 -32t-13 -32.5t-32 -13.5zM312 405q-19 0 -32.5 13.5t-13.5 31.5q0 19 13.5 32.5t32.5 13.5t32 -13.5t13 -32.5q0 -18 -13 -31.5t-32 -13.5z" />
    <glyph glyph-name="oslash" unicode="&#xf8;" horiz-adv-x="579" 
d="M28 0l436 500h87l-437 -500h-86zM290 -12q-74 0 -130.5 33.5t-88.5 92.5t-32 136t31.5 136t88 92.5t129.5 33.5t129.5 -33.5t88 -92.5t31.5 -136t-31.5 -136t-87.5 -92.5t-128 -33.5zM290 62q49 0 86.5 24t58.5 66t21 98t-21.5 98t-59.5 66t-87 24t-87 -24t-59.5 -66
t-21.5 -98q0 -55 22 -97.5t60 -66.5t88 -24z" />
    <glyph glyph-name="ugrave" unicode="&#xf9;" horiz-adv-x="558" 
d="M251 -12q-58 0 -101.5 23.5t-68 75t-24.5 133.5v280h80v-256q0 -74 17 -113t47.5 -53.5t68.5 -14.5q65 0 101.5 47t36.5 131v259h80v-500h-75l-4 75q-25 -42 -65 -64.5t-93 -22.5zM291 571l-130 130h102l120 -130h-92z" />
    <glyph glyph-name="uacute" unicode="&#xfa;" horiz-adv-x="558" 
d="M251 -12q-58 0 -101.5 23.5t-68 75t-24.5 133.5v280h80v-256q0 -74 17 -113t47.5 -53.5t68.5 -14.5q65 0 101.5 47t36.5 131v259h80v-500h-75l-4 75q-25 -42 -65 -64.5t-93 -22.5zM211 571l117 129h103l-129 -129h-91z" />
    <glyph glyph-name="ucircumflex" unicode="&#xfb;" horiz-adv-x="558" 
d="M251 -12q-58 0 -101.5 23.5t-68 75t-24.5 133.5v280h80v-256q0 -74 17 -113t47.5 -53.5t68.5 -14.5q65 0 101.5 47t36.5 131v259h80v-500h-75l-4 75q-25 -42 -65 -64.5t-93 -22.5zM360 582l-131 127v3h98l121 -130h-88zM107 582l121 130h98v-3l-131 -127h-88z" />
    <glyph glyph-name="udieresis" unicode="&#xfc;" horiz-adv-x="558" 
d="M251 -12q-58 0 -101.5 23.5t-68 75t-24.5 133.5v280h80v-256q0 -74 17 -113t47.5 -53.5t68.5 -14.5q65 0 101.5 47t36.5 131v259h80v-500h-75l-4 75q-25 -42 -65 -64.5t-93 -22.5zM402 620q-20 0 -34 14.5t-14 33.5q0 20 14 34t34 14t34 -14t14 -34q0 -19 -14 -33.5
t-34 -14.5zM155 620q-19 0 -33.5 14t-14.5 34t14.5 34t33.5 14q20 0 34 -14t14 -34t-14 -34t-34 -14z" />
    <glyph glyph-name="yacute" unicode="&#xfd;" horiz-adv-x="526" 
d="M115 -212q-19 0 -44 7.5t-53 19.5l30 67q23 -10 40.5 -15t27.5 -5q27 0 44.5 14.5t29.5 41.5l34 84l-215 498h85l170 -405l168 405h86l-240 -570q-19 -44 -39.5 -76t-49.5 -49t-74 -17zM195 571l117 129h103l-129 -129h-91z" />
    <glyph glyph-name="thorn" unicode="&#xfe;" horiz-adv-x="586" 
d="M70 -200v900h80v-284q28 45 71 70.5t98 25.5q67 0 118 -33t79.5 -92t28.5 -137q0 -77 -28.5 -136.5t-79.5 -92.5t-118 -33q-55 0 -98 25.5t-71 70.5v-284h-80zM301 61q47 0 83.5 24t58 67t21.5 98t-20.5 98t-57.5 67t-84 24q-44 0 -78.5 -24t-54 -67t-19.5 -98t19.5 -98
t53.5 -67t78 -24z" />
    <glyph glyph-name="ydieresis" unicode="&#xff;" horiz-adv-x="526" 
d="M115 -212q-19 0 -44 7.5t-53 19.5l30 67q23 -10 40.5 -15t27.5 -5q27 0 44.5 14.5t29.5 41.5l34 84l-215 498h85l170 -405l168 405h86l-240 -570q-19 -44 -39.5 -76t-49.5 -49t-74 -17zM386 620q-20 0 -34 14.5t-14 33.5q0 20 14 34t34 14t34 -14t14 -34q0 -19 -14 -33.5
t-34 -14.5zM139 620q-19 0 -33.5 14t-14.5 34t14.5 34t33.5 14q20 0 34 -14t14 -34t-14 -34t-34 -14z" />
    <glyph glyph-name="Amacron" unicode="&#x100;" horiz-adv-x="677" 
d="M9 0l285 700h88l285 -700h-89l-81 199h-317l-81 -199h-90zM209 275h258l-129 319zM185 750v73h306v-73h-306z" />
    <glyph glyph-name="amacron" unicode="&#x101;" horiz-adv-x="509" 
d="M228 -12q-88 0 -137.5 40.5t-49.5 112.5q0 76 50.5 116.5t141.5 40.5h139q-5 71 -35 106.5t-90 35.5q-41 0 -70.5 -16.5t-48.5 -52.5l-72 28q19 35 46 60.5t63 39t82 13.5q70 0 115.5 -27.5t68.5 -81t22 -132.5l-1 -271h-74l-4 67q-22 -38 -59 -58.5t-87 -20.5zM232 58
q43 0 75 18.5t49.5 52.5t17.5 82v20h-123q-70 0 -99.5 -23t-29.5 -66q0 -39 29 -61.5t81 -22.5zM99 575v73h306v-73h-306z" />
    <glyph glyph-name="Abreve" unicode="&#x102;" horiz-adv-x="677" 
d="M9 0l285 700h88l285 -700h-89l-81 199h-317l-81 -199h-90zM209 275h258l-129 319zM339 739q-49 0 -87.5 17.5t-60.5 48.5t-22 70h77q0 -31 26 -51t67 -20q40 0 65.5 20t25.5 51h77q0 -39 -21 -70t-59 -48.5t-88 -17.5z" />
    <glyph glyph-name="abreve" unicode="&#x103;" horiz-adv-x="509" 
d="M228 -12q-88 0 -137.5 40.5t-49.5 112.5q0 76 50.5 116.5t141.5 40.5h139q-5 71 -35 106.5t-90 35.5q-41 0 -70.5 -16.5t-48.5 -52.5l-72 28q19 35 46 60.5t63 39t82 13.5q70 0 115.5 -27.5t68.5 -81t22 -132.5l-1 -271h-74l-4 67q-22 -38 -59 -58.5t-87 -20.5zM232 58
q43 0 75 18.5t49.5 52.5t17.5 82v20h-123q-70 0 -99.5 -23t-29.5 -66q0 -39 29 -61.5t81 -22.5zM252 564q-49 0 -87.5 17.5t-60.5 48.5t-22 70h77q0 -31 26 -51t67 -20q40 0 65.5 20t25.5 51h77q0 -39 -21 -70t-59 -48.5t-88 -17.5z" />
    <glyph glyph-name="Aogonek" unicode="&#x104;" horiz-adv-x="677" 
d="M9 0l285 700h88l285 -700h-89l-81 199h-317l-81 -199h-90zM209 275h258l-129 319zM619 -212q-34 0 -60 10.5t-40 31.5t-14 52q0 37 29.5 69t67.5 59l65 -10q-33 -24 -61 -53t-28 -63q0 -14 9.5 -22.5t26.5 -8.5t30.5 4.5t18.5 6.5l25 -57q-13 -9 -30.5 -14t-38.5 -5z" />
    <glyph glyph-name="aogonek" unicode="&#x105;" horiz-adv-x="509" 
d="M228 -12q-88 0 -137.5 40.5t-49.5 112.5q0 76 50.5 116.5t141.5 40.5h139q-5 71 -35 106.5t-90 35.5q-41 0 -70.5 -16.5t-48.5 -52.5l-72 28q19 35 46 60.5t63 39t82 13.5q70 0 115.5 -27.5t68.5 -81t22 -132.5l-1 -271h-74l-4 67q-22 -38 -59 -58.5t-87 -20.5zM232 58
q43 0 75 18.5t49.5 52.5t17.5 82v20h-123q-70 0 -99.5 -23t-29.5 -66q0 -39 29 -61.5t81 -22.5zM404 -212q-34 0 -60 10.5t-40 31.5t-14 52q0 37 29.5 69t67.5 59l65 -10q-33 -24 -61 -53t-28 -63q0 -14 9.5 -22.5t26.5 -8.5t30.5 4.5t18.5 6.5l25 -57q-13 -9 -30.5 -14
t-38.5 -5z" />
    <glyph glyph-name="Cacute" unicode="&#x106;" horiz-adv-x="721" 
d="M388 -12q-100 0 -177 46.5t-121 128t-44 187.5t43.5 187.5t120 128t175.5 46.5q63 0 121 -22.5t104 -63t71 -93.5l-73 -37q-20 42 -55 73t-78 48.5t-90 17.5q-73 0 -131 -36.5t-90.5 -100.5t-32.5 -148t33 -149t91.5 -101.5t132.5 -36.5q48 0 91 19.5t77.5 53.5t54.5 78
l74 -37q-26 -55 -71.5 -98t-104 -67t-121.5 -24zM318 746l117 129h103l-129 -129h-91z" />
    <glyph glyph-name="cacute" unicode="&#x107;" horiz-adv-x="541" 
d="M293 -12q-74 0 -131 33.5t-89 92.5t-32 136t31.5 136t88.5 92.5t130 33.5q72 0 129 -33t87 -93l-73 -33q-20 40 -58 62.5t-87 22.5t-86.5 -24t-59 -66.5t-21.5 -97.5t21.5 -97.5t60 -66.5t87.5 -24t87.5 25t58.5 70l73 -33q-30 -64 -87 -100t-130 -36zM223 571l117 129
h103l-129 -129h-91z" />
    <glyph glyph-name="Ccircumflex" unicode="&#x108;" horiz-adv-x="721" 
d="M388 -12q-100 0 -177 46.5t-121 128t-44 187.5t43.5 187.5t120 128t175.5 46.5q63 0 121 -22.5t104 -63t71 -93.5l-73 -37q-20 42 -55 73t-78 48.5t-90 17.5q-73 0 -131 -36.5t-90.5 -100.5t-32.5 -148t33 -149t91.5 -101.5t132.5 -36.5q48 0 91 19.5t77.5 53.5t54.5 78
l74 -37q-26 -55 -71.5 -98t-104 -67t-121.5 -24zM467 757l-131 127v3h98l121 -130h-88zM214 757l121 130h98v-3l-131 -127h-88z" />
    <glyph glyph-name="ccircumflex" unicode="&#x109;" horiz-adv-x="541" 
d="M293 -12q-74 0 -131 33.5t-89 92.5t-32 136t31.5 136t88.5 92.5t130 33.5q72 0 129 -33t87 -93l-73 -33q-20 40 -58 62.5t-87 22.5t-86.5 -24t-59 -66.5t-21.5 -97.5t21.5 -97.5t60 -66.5t87.5 -24t87.5 25t58.5 70l73 -33q-30 -64 -87 -100t-130 -36zM372 582l-131 127
v3h98l121 -130h-88zM119 582l121 130h98v-3l-131 -127h-88z" />
    <glyph glyph-name="Cdotaccent" unicode="&#x10a;" horiz-adv-x="721" 
d="M388 -12q-100 0 -177 46.5t-121 128t-44 187.5t43.5 187.5t120 128t175.5 46.5q63 0 121 -22.5t104 -63t71 -93.5l-73 -37q-20 42 -55 73t-78 48.5t-90 17.5q-73 0 -131 -36.5t-90.5 -100.5t-32.5 -148t33 -149t91.5 -101.5t132.5 -36.5q48 0 91 19.5t77.5 53.5t54.5 78
l74 -37q-26 -55 -71.5 -98t-104 -67t-121.5 -24zM385 791q-20 0 -35 15t-15 35q0 21 15 35.5t35 14.5q21 0 35.5 -14.5t14.5 -35.5q0 -20 -14.5 -35t-35.5 -15z" />
    <glyph glyph-name="cdotaccent" unicode="&#x10b;" horiz-adv-x="541" 
d="M293 -12q-74 0 -131 33.5t-89 92.5t-32 136t31.5 136t88.5 92.5t130 33.5q72 0 129 -33t87 -93l-73 -33q-20 40 -58 62.5t-87 22.5t-86.5 -24t-59 -66.5t-21.5 -97.5t21.5 -97.5t60 -66.5t87.5 -24t87.5 25t58.5 70l73 -33q-30 -64 -87 -100t-130 -36zM291 616
q-20 0 -35 15t-15 35q0 21 15 35.5t35 14.5q21 0 35.5 -14.5t14.5 -35.5q0 -20 -14.5 -35t-35.5 -15z" />
    <glyph glyph-name="Ccaron" unicode="&#x10c;" horiz-adv-x="721" 
d="M388 -12q-100 0 -177 46.5t-121 128t-44 187.5t43.5 187.5t120 128t175.5 46.5q63 0 121 -22.5t104 -63t71 -93.5l-73 -37q-20 42 -55 73t-78 48.5t-90 17.5q-73 0 -131 -36.5t-90.5 -100.5t-32.5 -148t33 -149t91.5 -101.5t132.5 -36.5q48 0 91 19.5t77.5 53.5t54.5 78
l74 -37q-26 -55 -71.5 -98t-104 -67t-121.5 -24zM340 746v1l125 128h90l-121 -129h-94zM334 746l-121 129h90l125 -128v-1h-94z" />
    <glyph glyph-name="ccaron" unicode="&#x10d;" horiz-adv-x="541" 
d="M293 -12q-74 0 -131 33.5t-89 92.5t-32 136t31.5 136t88.5 92.5t130 33.5q72 0 129 -33t87 -93l-73 -33q-20 40 -58 62.5t-87 22.5t-86.5 -24t-59 -66.5t-21.5 -97.5t21.5 -97.5t60 -66.5t87.5 -24t87.5 25t58.5 70l73 -33q-30 -64 -87 -100t-130 -36zM246 571v1l125 128
h90l-121 -129h-94zM240 571l-121 129h90l125 -128v-1h-94z" />
    <glyph glyph-name="Dcaron" unicode="&#x10e;" horiz-adv-x="688" 
d="M93 0v700h213q99 0 174.5 -44.5t118.5 -123.5t43 -182q0 -102 -43 -181t-118.5 -124t-174.5 -45h-213zM178 78h128q53 0 98 20.5t79.5 58.5t54 87.5t19.5 105.5t-19.5 105.5t-54 87.5t-79.5 58.5t-98 20.5h-128v-544zM262 746v1l125 128h90l-121 -129h-94zM256 746
l-121 129h90l125 -128v-1h-94z" />
    <glyph glyph-name="dcaron" unicode="&#x10f;" horiz-adv-x="586" 
d="M267 -12q-67 0 -118 33t-79.5 92.5t-28.5 136.5q0 78 28.5 137t79.5 92t118 33q55 0 98.5 -25.5t70.5 -70.5v284h80v-700h-76l-4 85q-27 -45 -70.5 -71t-98.5 -26zM285 61q44 0 77.5 23.5t53 66t20.5 95.5v7q-1 54 -20.5 96.5t-53.5 66t-78 23.5q-47 0 -84 -24t-57.5 -67
t-20.5 -98t21 -98t58 -67t84 -24zM539 531l49 168h85l-66 -168h-68z" />
    <glyph glyph-name="Dcroat" unicode="&#x110;" horiz-adv-x="751" 
d="M73 314v70h319v-70h-319zM157 0v700h213q98 0 173.5 -44.5t118.5 -123.5t43 -182q0 -102 -43 -181t-118.5 -124t-173.5 -45h-213zM241 78h129q52 0 97.5 20.5t80 58.5t53.5 87.5t19 105.5t-19 105.5t-53.5 87.5t-80 58.5t-97.5 20.5h-129v-544z" />
    <glyph glyph-name="dcroat" unicode="&#x111;" horiz-adv-x="586" 
d="M276 567v63h316v-63h-316zM267 -12q-67 0 -118 33t-79.5 92.5t-28.5 136.5q0 78 28.5 137t79.5 92t118 33q55 0 98.5 -25.5t70.5 -70.5v284h80v-700h-76l-4 85q-27 -45 -70.5 -71t-98.5 -26zM285 61q44 0 77.5 23.5t53 66t20.5 95.5v7q-1 54 -20.5 96.5t-53.5 66
t-78 23.5q-47 0 -84 -24t-57.5 -67t-20.5 -98t21 -98t58 -67t84 -24z" />
    <glyph glyph-name="Emacron" unicode="&#x112;" horiz-adv-x="592" 
d="M93 0v700h414v-77h-329v-226h300v-76h-300v-244h331v-77h-416zM152 750v73h306v-73h-306z" />
    <glyph glyph-name="emacron" unicode="&#x113;" horiz-adv-x="547" 
d="M289 -12q-73 0 -129 33.5t-87.5 92.5t-31.5 136t31.5 136t87 92.5t127.5 33.5q70 0 121 -34.5t79 -96.5t28 -146h-393q5 -82 52 -128t119 -46q53 0 89.5 25t56.5 66l69 -35q-19 -39 -50.5 -68t-74 -45t-94.5 -16zM128 302h301q-3 43 -22.5 74t-50.5 48t-70 17
q-38 0 -73 -16.5t-58 -48t-27 -74.5zM135 575v73h306v-73h-306z" />
    <glyph glyph-name="Edotaccent" unicode="&#x116;" horiz-adv-x="592" 
d="M93 0v700h414v-77h-329v-226h300v-76h-300v-244h331v-77h-416zM305 791q-20 0 -35 15t-15 35q0 21 15 35.5t35 14.5q21 0 35.5 -14.5t14.5 -35.5q0 -20 -14.5 -35t-35.5 -15z" />
    <glyph glyph-name="edotaccent" unicode="&#x117;" horiz-adv-x="547" 
d="M289 -12q-73 0 -129 33.5t-87.5 92.5t-31.5 136t31.5 136t87 92.5t127.5 33.5q70 0 121 -34.5t79 -96.5t28 -146h-393q5 -82 52 -128t119 -46q53 0 89.5 25t56.5 66l69 -35q-19 -39 -50.5 -68t-74 -45t-94.5 -16zM128 302h301q-3 43 -22.5 74t-50.5 48t-70 17
q-38 0 -73 -16.5t-58 -48t-27 -74.5zM287 616q-20 0 -35 15t-15 35q0 21 15 35.5t35 14.5q21 0 35.5 -14.5t14.5 -35.5q0 -20 -14.5 -35t-35.5 -15z" />
    <glyph glyph-name="Eogonek" unicode="&#x118;" horiz-adv-x="592" 
d="M93 0v700h414v-77h-329v-226h300v-76h-300v-244h331v-77h-416zM460 -212q-34 0 -60 10.5t-40 31.5t-14 52q0 37 29.5 69t67.5 59l65 -10q-33 -24 -61 -53t-28 -63q0 -14 9.5 -22.5t26.5 -8.5t30.5 4.5t18.5 6.5l25 -57q-13 -9 -30.5 -14t-38.5 -5z" />
    <glyph glyph-name="eogonek" unicode="&#x119;" horiz-adv-x="547" 
d="M289 -12q-73 0 -129 33.5t-87.5 92.5t-31.5 136t31.5 136t87 92.5t127.5 33.5q70 0 121 -34.5t79 -96.5t28 -146h-393q5 -82 52 -128t119 -46q53 0 89.5 25t56.5 66l69 -35q-19 -39 -50.5 -68t-74 -45t-94.5 -16zM128 302h301q-3 43 -22.5 74t-50.5 48t-70 17
q-38 0 -73 -16.5t-58 -48t-27 -74.5zM450 -198q-38 0 -67 11t-44.5 31t-15.5 49q0 32 15 61t42 54t64 44h18q-25 -22 -40 -45.5t-21.5 -46.5t-6.5 -45t13 -35t36 -13q17 0 33.5 3t28.5 8l24 -57q-17 -10 -37.5 -14.5t-41.5 -4.5z" />
    <glyph glyph-name="Ecaron" unicode="&#x11a;" horiz-adv-x="592" 
d="M93 0v700h414v-77h-329v-226h300v-76h-300v-244h331v-77h-416zM259 746v1l125 128h90l-121 -129h-94zM253 746l-121 129h90l125 -128v-1h-94z" />
    <glyph glyph-name="ecaron" unicode="&#x11b;" horiz-adv-x="547" 
d="M289 -12q-73 0 -129 33.5t-87.5 92.5t-31.5 136t31.5 136t87 92.5t127.5 33.5q70 0 121 -34.5t79 -96.5t28 -146h-393q5 -82 52 -128t119 -46q53 0 89.5 25t56.5 66l69 -35q-19 -39 -50.5 -68t-74 -45t-94.5 -16zM128 302h301q-3 43 -22.5 74t-50.5 48t-70 17
q-38 0 -73 -16.5t-58 -48t-27 -74.5zM242 571v1l125 128h90l-121 -129h-94zM236 571l-121 129h90l125 -128v-1h-94z" />
    <glyph glyph-name="Gcircumflex" unicode="&#x11c;" horiz-adv-x="760" 
d="M410 -12q-107 0 -189 46.5t-128.5 128t-46.5 186.5q0 107 46.5 188.5t128.5 128t189 46.5q56 0 109 -18.5t97 -50.5t71 -73l-67 -46q-20 32 -54 57.5t-74.5 39.5t-81.5 14q-81 0 -144 -36.5t-99 -100.5t-36 -149q0 -82 35.5 -146.5t99 -101.5t144.5 -37q67 0 119.5 28
t82.5 78t31 114h-172v73h253v-66q0 -91 -40.5 -159t-111.5 -106t-162 -38zM471 758l-131 127v3h98l121 -130h-88zM218 758l121 130h98v-3l-131 -127h-88z" />
    <glyph glyph-name="gcircumflex" unicode="&#x11d;" horiz-adv-x="587" 
d="M270 -212q-48 0 -87.5 9.5t-67 21t-39.5 19.5l30 65q13 -7 37 -17.5t56.5 -18t69.5 -7.5q48 0 86.5 19.5t60 61t21.5 106.5v53q-27 -45 -71 -70.5t-99 -25.5q-67 0 -118 32t-79.5 89.5t-28.5 131.5q0 76 28.5 133.5t79.5 89.5t118 32q55 0 99 -25t71 -71v84h80v-452
q0 -86 -32 -144t-88 -87t-127 -29zM286 73q44 0 78 24t53 65.5t19 96.5q0 53 -19.5 94.5t-53 65t-78.5 23.5q-47 0 -83.5 -23.5t-57 -65t-20.5 -94.5q0 -55 21 -96.5t57.5 -65.5t83.5 -24zM358 582l-131 127v3h98l121 -130h-88zM105 582l121 130h98v-3l-131 -127h-88z" />
    <glyph glyph-name="Gbreve" unicode="&#x11e;" horiz-adv-x="760" 
d="M410 -12q-107 0 -189 46.5t-128.5 128t-46.5 186.5q0 107 46.5 188.5t128.5 128t189 46.5q56 0 109 -18.5t97 -50.5t71 -73l-67 -46q-20 32 -54 57.5t-74.5 39.5t-81.5 14q-81 0 -144 -36.5t-99 -100.5t-36 -149q0 -82 35.5 -146.5t99 -101.5t144.5 -37q67 0 119.5 28
t82.5 78t31 114h-172v73h253v-66q0 -91 -40.5 -159t-111.5 -106t-162 -38zM386 764q-49 0 -87.5 17.5t-60.5 48.5t-22 70h77q0 -31 26 -51t67 -20q40 0 65.5 20t25.5 51h77q0 -39 -21 -70t-59 -48.5t-88 -17.5z" />
    <glyph glyph-name="gbreve" unicode="&#x11f;" horiz-adv-x="587" 
d="M270 -212q-48 0 -87.5 9.5t-67 21t-39.5 19.5l30 65q13 -7 37 -17.5t56.5 -18t69.5 -7.5q48 0 86.5 19.5t60 61t21.5 106.5v53q-27 -45 -71 -70.5t-99 -25.5q-67 0 -118 32t-79.5 89.5t-28.5 131.5q0 76 28.5 133.5t79.5 89.5t118 32q55 0 99 -25t71 -71v84h80v-452
q0 -86 -32 -144t-88 -87t-127 -29zM286 73q44 0 78 24t53 65.5t19 96.5q0 53 -19.5 94.5t-53 65t-78.5 23.5q-47 0 -83.5 -23.5t-57 -65t-20.5 -94.5q0 -55 21 -96.5t57.5 -65.5t83.5 -24zM277 564q-49 0 -87.5 17.5t-60.5 48.5t-22 70h77q0 -31 26 -51t67 -20q40 0 65.5 20
t25.5 51h77q0 -39 -21 -70t-59 -48.5t-88 -17.5z" />
    <glyph glyph-name="Gdotaccent" unicode="&#x120;" horiz-adv-x="760" 
d="M410 -12q-107 0 -189 46.5t-128.5 128t-46.5 186.5q0 107 46.5 188.5t128.5 128t189 46.5q56 0 109 -18.5t97 -50.5t71 -73l-67 -46q-20 32 -54 57.5t-74.5 39.5t-81.5 14q-81 0 -144 -36.5t-99 -100.5t-36 -149q0 -82 35.5 -146.5t99 -101.5t144.5 -37q67 0 119.5 28
t82.5 78t31 114h-172v73h253v-66q0 -91 -40.5 -159t-111.5 -106t-162 -38zM385 816q-20 0 -35 15t-15 35q0 21 15 35.5t35 14.5q21 0 35.5 -14.5t14.5 -35.5q0 -20 -14.5 -35t-35.5 -15z" />
    <glyph glyph-name="gdotaccent" unicode="&#x121;" horiz-adv-x="587" 
d="M270 -212q-48 0 -87.5 9.5t-67 21t-39.5 19.5l30 65q13 -7 37 -17.5t56.5 -18t69.5 -7.5q48 0 86.5 19.5t60 61t21.5 106.5v53q-27 -45 -71 -70.5t-99 -25.5q-67 0 -118 32t-79.5 89.5t-28.5 131.5q0 76 28.5 133.5t79.5 89.5t118 32q55 0 99 -25t71 -71v84h80v-452
q0 -86 -32 -144t-88 -87t-127 -29zM286 73q44 0 78 24t53 65.5t19 96.5q0 53 -19.5 94.5t-53 65t-78.5 23.5q-47 0 -83.5 -23.5t-57 -65t-20.5 -94.5q0 -55 21 -96.5t57.5 -65.5t83.5 -24zM277 616q-20 0 -35 15t-15 35q0 21 15 35.5t35 14.5q21 0 35.5 -14.5t14.5 -35.5
q0 -20 -14.5 -35t-35.5 -15z" />
    <glyph glyph-name="uni0122" unicode="&#x122;" horiz-adv-x="760" 
d="M410 -12q-107 0 -189 46.5t-128.5 128t-46.5 186.5q0 107 46.5 188.5t128.5 128t189 46.5q56 0 109 -18.5t97 -50.5t71 -73l-67 -46q-20 32 -54 57.5t-74.5 39.5t-81.5 14q-81 0 -144 -36.5t-99 -100.5t-36 -149q0 -82 35.5 -146.5t99 -101.5t144.5 -37q67 0 119.5 28
t82.5 78t31 114h-172v73h253v-66q0 -91 -40.5 -159t-111.5 -106t-162 -38zM326 -200l46 140h87l-65 -140h-68z" />
    <glyph glyph-name="uni0123" unicode="&#x123;" horiz-adv-x="587" 
d="M270 -212q-48 0 -87.5 9.5t-67 21t-39.5 19.5l30 65q13 -7 37 -17.5t56.5 -18t69.5 -7.5q48 0 86.5 19.5t60 61t21.5 106.5v53q-27 -45 -71 -70.5t-99 -25.5q-67 0 -118 32t-79.5 89.5t-28.5 131.5q0 76 28.5 133.5t79.5 89.5t118 32q55 0 99 -25t71 -71v84h80v-452
q0 -86 -32 -144t-88 -87t-127 -29zM286 73q44 0 78 24t53 65.5t19 96.5q0 53 -19.5 94.5t-53 65t-78.5 23.5q-47 0 -83.5 -23.5t-57 -65t-20.5 -94.5q0 -55 21 -96.5t57.5 -65.5t83.5 -24zM378 713l-57 -132h-89l78 132h68z" />
    <glyph glyph-name="Hcircumflex" unicode="&#x124;" horiz-adv-x="751" 
d="M93 0v700h85v-301h396v301h84v-700h-84v322h-396v-322h-85zM459 757l-131 127v3h98l121 -130h-88zM206 757l121 130h98v-3l-131 -127h-88z" />
    <glyph glyph-name="hcircumflex" unicode="&#x125;" horiz-adv-x="558" 
d="M70 0v700h80v-273q25 41 65 63t93 22q58 0 102 -23.5t68.5 -74.5t23.5 -134v-280h-80v256q0 74 -17.5 113t-47.5 53.5t-68 14.5q-66 0 -102.5 -46.5t-36.5 -131.5v-259h-80zM191 782l-131 127v3h98l121 -130h-88zM-62 782l121 130h98v-3l-131 -127h-88z" />
    <glyph glyph-name="Hbar" unicode="&#x126;" horiz-adv-x="751" 
d="M5 501v69h741v-69h-741zM93 0v700h85v-301h396v301h84v-700h-84v322h-396v-322h-85z" />
    <glyph glyph-name="hbar" unicode="&#x127;" horiz-adv-x="558" 
d="M0 567v63h316v-63h-316zM70 0v700h80v-273q25 41 65 63t93 22q58 0 102 -23.5t68.5 -74.5t23.5 -134v-280h-80v256q0 74 -17.5 113t-47.5 53.5t-68 14.5q-66 0 -102.5 -46.5t-36.5 -131.5v-259h-80z" />
    <glyph glyph-name="Imacron" unicode="&#x12a;" horiz-adv-x="271" 
d="M93 0v700h85v-700h-85zM-17 750v73h306v-73h-306z" />
    <glyph glyph-name="imacron" unicode="&#x12b;" horiz-adv-x="232" 
d="M75 0v500h80v-500h-80zM-13 575v73h258v-73h-258z" />
    <glyph glyph-name="Iogonek" unicode="&#x12e;" horiz-adv-x="271" 
d="M93 0v700h85v-700h-85zM129 -212q-34 0 -60 10.5t-40 31.5t-14 52q0 37 29.5 69t67.5 59l65 -10q-33 -24 -61 -53t-28 -63q0 -14 9.5 -22.5t26.5 -8.5t30.5 4.5t18.5 6.5l25 -57q-13 -9 -30.5 -14t-38.5 -5z" />
    <glyph glyph-name="iogonek" unicode="&#x12f;" horiz-adv-x="232" 
d="M75 0v500h80v-500h-80zM116 616q-20 0 -35 15t-15 35q0 21 15 35.5t35 14.5q21 0 35.5 -14.5t14.5 -35.5q0 -20 -14.5 -35t-35.5 -15zM107 -212q-34 0 -60 10.5t-40 31.5t-14 52q0 37 29.5 69t67.5 59l65 -10q-33 -24 -61 -53t-28 -63q0 -14 9.5 -22.5t26.5 -8.5
t30.5 4.5t18.5 6.5l25 -57q-13 -9 -30.5 -14t-38.5 -5z" />
    <glyph glyph-name="Idotaccent" unicode="&#x130;" horiz-adv-x="271" 
d="M93 0v700h85v-700h-85zM136 791q-20 0 -35 15t-15 35q0 21 15 35.5t35 14.5q21 0 35.5 -14.5t14.5 -35.5q0 -20 -14.5 -35t-35.5 -15z" />
    <glyph glyph-name="dotlessi" unicode="&#x131;" horiz-adv-x="232" 
d="M75 0v500h80v-500h-80z" />
    <glyph glyph-name="IJ" unicode="&#x132;" horiz-adv-x="785" 
d="M93 0v700h85v-700h-85zM468 -12q-36 0 -66.5 10.5t-54.5 28t-41 40t-28 46.5l64 37q21 -37 51.5 -61t75.5 -24q36 0 70.5 17t56.5 57t22 105v456h84v-489q0 -55 -19.5 -97t-53 -70t-75.5 -42t-86 -14z" />
    <glyph glyph-name="ij" unicode="&#x133;" horiz-adv-x="500" 
d="M75 0v500h80v-500h-80zM116 616q-20 0 -35 15t-15 35q0 21 15 35.5t35 14.5q21 0 35.5 -14.5t14.5 -35.5q0 -20 -14.5 -35t-35.5 -15zM384 617q-20 0 -35 15t-15 35q0 22 15 36.5t35 14.5q21 0 36 -14.5t15 -36.5q0 -20 -15 -35t-36 -15zM273 -215q-37 0 -94 26l30 67
q24 -9 40.5 -14t26.5 -5q68 0 68 87v554h80v-556q0 -78 -38 -118.5t-113 -40.5z" />
    <glyph glyph-name="Jcircumflex" unicode="&#x134;" horiz-adv-x="515" 
d="M197 -12q-36 0 -66.5 10.5t-54.5 28t-41 40t-28 46.5l64 37q21 -37 51.5 -61t75.5 -24q36 0 70.5 17t56.5 57t22 105v456h84v-489q0 -55 -19.5 -97t-53 -70t-75.5 -42t-86 -14zM468 758l-131 127v3h98l121 -130h-88zM215 758l121 130h98v-3l-131 -127h-88z" />
    <glyph glyph-name="jcircumflex" unicode="&#x135;" horiz-adv-x="258" 
d="M41 -215q-37 0 -94 26l30 67q24 -9 40.5 -14t26.5 -5q68 0 68 87v554h80v-556q0 -78 -38 -118.5t-113 -40.5zM233 582l-131 127v3h98l121 -130h-88zM-20 582l121 130h98v-3l-131 -127h-88z" />
    <glyph glyph-name="uni0136" unicode="&#x136;" horiz-adv-x="610" 
d="M93 0v700h81v-323l311 323h106l-301 -315l314 -385h-103l-266 328l-61 -64v-264h-81zM221 -200l46 140h87l-65 -140h-68z" />
    <glyph glyph-name="uni0137" unicode="&#x137;" horiz-adv-x="485" 
d="M70 0v700h80v-426l213 226h101l-186 -200l206 -300h-99l-160 242l-75 -79v-163h-80zM165 -200l46 140h87l-65 -140h-68z" />
    <glyph glyph-name="Lacute" unicode="&#x139;" horiz-adv-x="520" 
d="M93 0v700h85v-623h330v-77h-415zM68 746l117 129h103l-129 -129h-91z" />
    <glyph glyph-name="lacute" unicode="&#x13a;" horiz-adv-x="220" 
d="M70 0v700h80v-700h-80zM42 746l117 129h103l-129 -129h-91z" />
    <glyph glyph-name="uni013B" unicode="&#x13b;" horiz-adv-x="520" 
d="M93 0v700h85v-623h330v-77h-415zM201 -200l46 140h87l-65 -140h-68z" />
    <glyph glyph-name="uni013C" unicode="&#x13c;" horiz-adv-x="220" 
d="M70 0v700h80v-700h-80zM26 -200l46 140h87l-65 -140h-68z" />
    <glyph glyph-name="Lcaron" unicode="&#x13d;" horiz-adv-x="520" 
d="M93 0v700h85v-623h330v-77h-415zM235 590l49 168h85l-66 -168h-68z" />
    <glyph glyph-name="lcaron" unicode="&#x13e;" horiz-adv-x="220" 
d="M70 0v700h80v-700h-80zM174 531l49 168h85l-66 -168h-68z" />
    <glyph glyph-name="Lslash" unicode="&#x141;" horiz-adv-x="520" 
d="M3 258v74l288 133v-73zM93 0v700h85v-623h330v-77h-415z" />
    <glyph glyph-name="lslash" unicode="&#x142;" horiz-adv-x="282" 
d="M17 258v72l248 121v-71zM100 0v700h80v-700h-80z" />
    <glyph glyph-name="Nacute" unicode="&#x143;" horiz-adv-x="774" 
d="M93 0v700h86l417 -562v562h85v-700h-85l-418 565v-565h-85zM314 743l117 129h103l-129 -129h-91z" />
    <glyph glyph-name="nacute" unicode="&#x144;" horiz-adv-x="558" 
d="M70 0v500h75l4 -75q25 42 65 64.5t93 22.5q59 0 102.5 -23.5t68 -74.5t23.5 -134v-280h-80v256q0 74 -17 113t-47 53.5t-68 14.5q-66 0 -102.5 -46.5t-36.5 -131.5v-259h-80zM210 571l117 129h103l-129 -129h-91z" />
    <glyph glyph-name="uni0145" unicode="&#x145;" horiz-adv-x="774" 
d="M93 0v700h86l417 -562v562h85v-700h-85l-418 565v-565h-85zM303 -200l46 140h87l-65 -140h-68z" />
    <glyph glyph-name="uni0146" unicode="&#x146;" horiz-adv-x="558" 
d="M70 0v500h75l4 -75q25 42 65 64.5t93 22.5q59 0 102.5 -23.5t68 -74.5t23.5 -134v-280h-80v256q0 74 -17 113t-47 53.5t-68 14.5q-66 0 -102.5 -46.5t-36.5 -131.5v-259h-80zM194 -200l46 140h87l-65 -140h-68z" />
    <glyph glyph-name="Ncaron" unicode="&#x147;" horiz-adv-x="774" 
d="M93 0v700h86l417 -562v562h85v-700h-85l-418 565v-565h-85zM337 743v1l125 128h90l-121 -129h-94zM331 743l-121 129h90l125 -128v-1h-94z" />
    <glyph glyph-name="ncaron" unicode="&#x148;" horiz-adv-x="558" 
d="M70 0v500h75l4 -75q25 42 65 64.5t93 22.5q59 0 102.5 -23.5t68 -74.5t23.5 -134v-280h-80v256q0 74 -17 113t-47 53.5t-68 14.5q-66 0 -102.5 -46.5t-36.5 -131.5v-259h-80zM233 571v1l125 128h90l-121 -129h-94zM227 571l-121 129h90l125 -128v-1h-94z" />
    <glyph glyph-name="Eng" unicode="&#x14a;" horiz-adv-x="774" 
d="M529 -213q-38 0 -95 26l31 68q23 -10 39.5 -15t26.5 -5q69 0 69 88v470h81v-472q0 -79 -38.5 -119.5t-113.5 -40.5zM93 0v700h86l417 -562v562h85v-700h-85l-418 565v-565h-85z" />
    <glyph glyph-name="eng" unicode="&#x14b;" horiz-adv-x="558" 
d="M350 -215q-37 0 -94 26l31 67q23 -9 39.5 -14t26.5 -5q68 0 68 87v310q0 74 -17 113t-47 53.5t-68 14.5q-66 0 -102.5 -46.5t-36.5 -131.5v-259h-80v500h75l4 -75q25 42 65 64.5t93 22.5q59 0 102.5 -23.5t68 -74.5t23.5 -134v-336q0 -78 -38 -118.5t-113 -40.5z" />
    <glyph glyph-name="Omacron" unicode="&#x14c;" horiz-adv-x="776" 
d="M391 -12q-101 0 -179 46t-122 128t-44 188q0 107 43.5 188.5t120.5 127.5t178 46t178.5 -46.5t120.5 -128t43 -187.5t-43 -188t-119.5 -128t-176.5 -46zM391 65q75 0 132 36.5t89.5 100.5t32.5 148q0 83 -33 147.5t-90.5 101t-133.5 36.5q-75 0 -133 -36.5t-91 -101
t-33 -147.5q0 -84 33 -148t92 -100.5t135 -36.5zM200 750v73h375v-73h-375z" />
    <glyph glyph-name="omacron" unicode="&#x14d;" horiz-adv-x="580" 
d="M291 -12q-73 0 -129.5 33.5t-88.5 92.5t-32 136t31.5 136t88 92.5t128.5 33.5q74 0 130.5 -33.5t88 -92.5t31.5 -136t-31.5 -136t-87.5 -92.5t-129 -33.5zM291 62q50 0 87 24t58.5 66t21.5 98t-21.5 98t-59.5 66t-88 24q-49 0 -86.5 -24t-59 -66t-21.5 -98
q0 -55 21.5 -97.5t60 -66.5t87.5 -24zM136 575v73h306v-73h-306z" />
    <glyph glyph-name="Ohungarumlaut" unicode="&#x150;" horiz-adv-x="776" 
d="M391 -12q-101 0 -179 46t-122 128t-44 188q0 107 43.5 188.5t120.5 127.5t178 46t178.5 -46.5t120.5 -128t43 -187.5t-43 -188t-119.5 -128t-176.5 -46zM391 65q75 0 132 36.5t89.5 100.5t32.5 148q0 83 -33 147.5t-90.5 101t-133.5 36.5q-75 0 -133 -36.5t-91 -101
t-33 -147.5q0 -84 33 -148t92 -100.5t135 -36.5zM419 746l99 129h102l-110 -129h-91zM239 746l98 129h103l-110 -129h-91z" />
    <glyph glyph-name="ohungarumlaut" unicode="&#x151;" horiz-adv-x="580" 
d="M291 -12q-73 0 -129.5 33.5t-88.5 92.5t-32 136t31.5 136t88 92.5t128.5 33.5q74 0 130.5 -33.5t88 -92.5t31.5 -136t-31.5 -136t-87.5 -92.5t-129 -33.5zM291 62q50 0 87 24t58.5 66t21.5 98t-21.5 98t-59.5 66t-88 24q-49 0 -86.5 -24t-59 -66t-21.5 -98
q0 -55 21.5 -97.5t60 -66.5t87.5 -24zM320 571l99 129h102l-110 -129h-91zM140 571l98 129h103l-110 -129h-91z" />
    <glyph glyph-name="OE" unicode="&#x152;" horiz-adv-x="1133" 
d="M391 -15q-101 0 -179 46.5t-122 128.5t-44 190q0 107 43.5 189.5t120.5 129t178 46.5q93 0 165 -43t112.5 -124.5t40.5 -196.5q0 -116 -40.5 -198t-111.5 -125t-163 -43zM391 62q72 0 126.5 33.5t85.5 98t31 156.5t-31.5 156t-87 98t-127.5 34q-74 0 -132 -37t-91 -102
t-33 -149t33 -149t91.5 -102t134.5 -37zM634 0v700h414v-77h-330v-226h301v-76h-301v-244h331v-77h-415z" />
    <glyph glyph-name="oe" unicode="&#x153;" horiz-adv-x="986" 
d="M291 -12q-73 0 -129.5 33.5t-88.5 92.5t-32 136t31.5 136t88 92.5t128.5 33.5q74 0 130.5 -33.5t88 -92.5t31.5 -136t-31.5 -136t-87.5 -92.5t-129 -33.5zM291 62q50 0 87 24t58.5 66t21.5 98t-21.5 98t-59.5 66t-88 24q-49 0 -86.5 -24t-59 -66t-21.5 -98
q0 -55 21.5 -97.5t60 -66.5t87.5 -24zM729 -12q-73 0 -129 33.5t-87.5 92.5t-31.5 136t31.5 136t87 92.5t127.5 33.5q70 0 121 -34.5t79 -96.5t28 -146h-393q5 -82 52 -128t119 -46q53 0 89.5 25t56.5 66l69 -35q-19 -39 -50.5 -68t-74 -45t-94.5 -16zM568 302h301
q-3 43 -22.5 74t-50.5 48t-70 17q-38 0 -73 -16.5t-58 -48t-27 -74.5z" />
    <glyph glyph-name="Racute" unicode="&#x154;" horiz-adv-x="626" 
d="M93 0v700h228q68 0 120.5 -27t82 -75t29.5 -110q0 -69 -39.5 -120.5t-103.5 -75.5l171 -292h-93l-161 276q-7 -1 -14 -1h-14h-121v-275h-85zM178 353h155q38 0 68 17.5t48.5 48t18.5 69.5q0 60 -41.5 97.5t-107.5 37.5h-141v-270zM222 746l117 129h103l-129 -129h-91z
" />
    <glyph glyph-name="racute" unicode="&#x155;" horiz-adv-x="338" 
d="M70 0v500h80v-89q30 47 77.5 69t99.5 22v-75q-44 0 -84.5 -14.5t-66.5 -47.5t-26 -90v-275h-80zM93 571l117 129h103l-129 -129h-91z" />
    <glyph glyph-name="uni0156" unicode="&#x156;" horiz-adv-x="626" 
d="M93 0v700h228q68 0 120.5 -27t82 -75t29.5 -110q0 -69 -39.5 -120.5t-103.5 -75.5l171 -292h-93l-161 276q-7 -1 -14 -1h-14h-121v-275h-85zM178 353h155q38 0 68 17.5t48.5 48t18.5 69.5q0 60 -41.5 97.5t-107.5 37.5h-141v-270zM229 -200l46 140h87l-65 -140h-68z" />
    <glyph glyph-name="uni0157" unicode="&#x157;" horiz-adv-x="338" 
d="M70 0v500h80v-89q30 47 77.5 69t99.5 22v-75q-44 0 -84.5 -14.5t-66.5 -47.5t-26 -90v-275h-80zM49 -200l46 140h87l-65 -140h-68z" />
    <glyph glyph-name="Rcaron" unicode="&#x158;" horiz-adv-x="626" 
d="M93 0v700h228q68 0 120.5 -27t82 -75t29.5 -110q0 -69 -39.5 -120.5t-103.5 -75.5l171 -292h-93l-161 276q-7 -1 -14 -1h-14h-121v-275h-85zM178 353h155q38 0 68 17.5t48.5 48t18.5 69.5q0 60 -41.5 97.5t-107.5 37.5h-141v-270zM245 746v1l125 128h90l-121 -129h-94z
M239 746l-121 129h90l125 -128v-1h-94z" />
    <glyph glyph-name="rcaron" unicode="&#x159;" horiz-adv-x="338" 
d="M70 0v500h80v-89q30 47 77.5 69t99.5 22v-75q-44 0 -84.5 -14.5t-66.5 -47.5t-26 -90v-275h-80zM115 571v1l125 128h90l-121 -129h-94zM109 571l-121 129h90l125 -128v-1h-94z" />
    <glyph glyph-name="Sacute" unicode="&#x15a;" horiz-adv-x="614" 
d="M317 -12q-58 0 -103 12.5t-78 35t-54 50t-31 58.5l81 28q15 -44 60.5 -76.5t111.5 -32.5q81 0 127 32t46 85q0 49 -41 79.5t-108 47.5l-77 20q-47 12 -86.5 35.5t-63 60t-23.5 87.5q0 95 61.5 148.5t177.5 53.5q69 0 119 -22.5t81.5 -57t44.5 -74.5l-80 -28
q-19 50 -64 78.5t-109 28.5q-67 0 -106.5 -32.5t-39.5 -88.5q0 -48 31 -73.5t81 -37.5l77 -19q102 -24 156.5 -79.5t54.5 -119.5q0 -55 -28 -100.5t-82.5 -72t-135.5 -26.5zM250 746l117 129h103l-129 -129h-91z" />
    <glyph glyph-name="sacute" unicode="&#x15b;" horiz-adv-x="470" 
d="M245 -12q-55 0 -96 16.5t-68.5 43.5t-39.5 59l70 29q17 -34 51 -55t75 -21q47 0 79 18.5t32 52.5q0 31 -23.5 50t-69.5 31l-48 13q-68 18 -106 54.5t-38 82.5q0 71 46.5 110.5t138.5 39.5q44 0 80 -13t62 -36.5t38 -55.5l-70 -31q-13 34 -43 49t-73 15q-46 0 -72 -19.5
t-26 -54.5q0 -20 21.5 -37.5t63.5 -28.5l50 -13q49 -12 82 -35.5t50 -53.5t17 -64q0 -45 -24 -78t-65 -50.5t-94 -17.5zM180 571l117 129h103l-129 -129h-91z" />
    <glyph glyph-name="Scircumflex" unicode="&#x15c;" horiz-adv-x="614" 
d="M317 -12q-58 0 -103 12.5t-78 35t-54 50t-31 58.5l81 28q15 -44 60.5 -76.5t111.5 -32.5q81 0 127 32t46 85q0 49 -41 79.5t-108 47.5l-77 20q-47 12 -86.5 35.5t-63 60t-23.5 87.5q0 95 61.5 148.5t177.5 53.5q69 0 119 -22.5t81.5 -57t44.5 -74.5l-80 -28
q-19 50 -64 78.5t-109 28.5q-67 0 -106.5 -32.5t-39.5 -88.5q0 -48 31 -73.5t81 -37.5l77 -19q102 -24 156.5 -79.5t54.5 -119.5q0 -55 -28 -100.5t-82.5 -72t-135.5 -26.5zM399 757l-131 127v3h98l121 -130h-88zM146 757l121 130h98v-3l-131 -127h-88z" />
    <glyph glyph-name="scircumflex" unicode="&#x15d;" horiz-adv-x="470" 
d="M245 -12q-55 0 -96 16.5t-68.5 43.5t-39.5 59l70 29q17 -34 51 -55t75 -21q47 0 79 18.5t32 52.5q0 31 -23.5 50t-69.5 31l-48 13q-68 18 -106 54.5t-38 82.5q0 71 46.5 110.5t138.5 39.5q44 0 80 -13t62 -36.5t38 -55.5l-70 -31q-13 34 -43 49t-73 15q-46 0 -72 -19.5
t-26 -54.5q0 -20 21.5 -37.5t63.5 -28.5l50 -13q49 -12 82 -35.5t50 -53.5t17 -64q0 -45 -24 -78t-65 -50.5t-94 -17.5zM329 582l-131 127v3h98l121 -130h-88zM76 582l121 130h98v-3l-131 -127h-88z" />
    <glyph glyph-name="Scedilla" unicode="&#x15e;" horiz-adv-x="614" 
d="M317 -12q-58 0 -103 12.5t-78 35t-54 50t-31 58.5l81 28q15 -44 60.5 -76.5t111.5 -32.5q81 0 127 32t46 85q0 49 -41 79.5t-108 47.5l-77 20q-47 12 -86.5 35.5t-63 60t-23.5 87.5q0 95 61.5 148.5t177.5 53.5q69 0 119 -22.5t81.5 -57t44.5 -74.5l-80 -28
q-19 50 -64 78.5t-109 28.5q-67 0 -106.5 -32.5t-39.5 -88.5q0 -48 31 -73.5t81 -37.5l77 -19q102 -24 156.5 -79.5t54.5 -119.5q0 -55 -28 -100.5t-82.5 -72t-135.5 -26.5zM285 -210q-19 0 -42 5t-54 22l20 48q15 -7 32.5 -14t31.5 -7q18 0 32.5 7t14.5 29q0 25 -18.5 37.5
t-57.5 18.5l30 70l53 -12l-11 -26q37 -13 52.5 -36.5t15.5 -49.5q0 -39 -23.5 -65.5t-75.5 -26.5z" />
    <glyph glyph-name="scedilla" unicode="&#x15f;" horiz-adv-x="470" 
d="M245 -12q-55 0 -96 16.5t-68.5 43.5t-39.5 59l70 29q17 -34 51 -55t75 -21q47 0 79 18.5t32 52.5q0 31 -23.5 50t-69.5 31l-48 13q-68 18 -106 54.5t-38 82.5q0 71 46.5 110.5t138.5 39.5q44 0 80 -13t62 -36.5t38 -55.5l-70 -31q-13 34 -43 49t-73 15q-46 0 -72 -19.5
t-26 -54.5q0 -20 21.5 -37.5t63.5 -28.5l50 -13q49 -12 82 -35.5t50 -53.5t17 -64q0 -45 -24 -78t-65 -50.5t-94 -17.5zM214 -210q-19 0 -42 5t-54 22l20 48q15 -7 32.5 -14t31.5 -7q18 0 32.5 7t14.5 29q0 25 -18.5 37.5t-57.5 18.5l30 70l53 -12l-11 -26
q37 -13 52.5 -36.5t15.5 -49.5q0 -39 -23.5 -65.5t-75.5 -26.5z" />
    <glyph glyph-name="Scaron" unicode="&#x160;" horiz-adv-x="614" 
d="M317 -12q-58 0 -103 12.5t-78 35t-54 50t-31 58.5l81 28q15 -44 60.5 -76.5t111.5 -32.5q81 0 127 32t46 85q0 49 -41 79.5t-108 47.5l-77 20q-47 12 -86.5 35.5t-63 60t-23.5 87.5q0 95 61.5 148.5t177.5 53.5q69 0 119 -22.5t81.5 -57t44.5 -74.5l-80 -28
q-19 50 -64 78.5t-109 28.5q-67 0 -106.5 -32.5t-39.5 -88.5q0 -48 31 -73.5t81 -37.5l77 -19q102 -24 156.5 -79.5t54.5 -119.5q0 -55 -28 -100.5t-82.5 -72t-135.5 -26.5zM272 746v1l125 128h90l-121 -129h-94zM266 746l-121 129h90l125 -128v-1h-94z" />
    <glyph glyph-name="scaron" unicode="&#x161;" horiz-adv-x="470" 
d="M245 -12q-55 0 -96 16.5t-68.5 43.5t-39.5 59l70 29q17 -34 51 -55t75 -21q47 0 79 18.5t32 52.5q0 31 -23.5 50t-69.5 31l-48 13q-68 18 -106 54.5t-38 82.5q0 71 46.5 110.5t138.5 39.5q44 0 80 -13t62 -36.5t38 -55.5l-70 -31q-13 34 -43 49t-73 15q-46 0 -72 -19.5
t-26 -54.5q0 -20 21.5 -37.5t63.5 -28.5l50 -13q49 -12 82 -35.5t50 -53.5t17 -64q0 -45 -24 -78t-65 -50.5t-94 -17.5zM203 571v1l125 128h90l-121 -129h-94zM197 571l-121 129h90l125 -128v-1h-94z" />
    <glyph glyph-name="Tcaron" unicode="&#x164;" horiz-adv-x="552" 
d="M234 0v623h-223v77h530v-77h-223v-623h-84zM231 746v1l125 128h90l-121 -129h-94zM225 746l-121 129h90l125 -128v-1h-94z" />
    <glyph glyph-name="tcaron" unicode="&#x165;" horiz-adv-x="382" 
d="M258 -12q-73 0 -113 38t-40 107v296h-87v71h87v156h80v-156h150v-71h-150v-288q0 -38 20.5 -58.5t57.5 -20.5q12 0 23.5 3.5t30.5 17.5l31 -65q-26 -17 -47 -23.5t-43 -6.5zM231 558l50 163h84l-66 -163h-68z" />
    <glyph glyph-name="Umacron" unicode="&#x16a;" horiz-adv-x="707" 
d="M351 -15q-79 0 -139.5 33.5t-94.5 93t-34 137.5v451h85v-451q0 -55 23.5 -97.5t65.5 -66t96 -23.5q55 0 97.5 23.5t66 66t23.5 97.5v451h84v-451q0 -78 -34 -137.5t-96 -93t-143 -33.5zM201 750v73h306v-73h-306z" />
    <glyph glyph-name="umacron" unicode="&#x16b;" horiz-adv-x="558" 
d="M251 -12q-58 0 -101.5 23.5t-68 75t-24.5 133.5v280h80v-256q0 -74 17 -113t47.5 -53.5t68.5 -14.5q65 0 101.5 47t36.5 131v259h80v-500h-75l-4 75q-25 -42 -65 -64.5t-93 -22.5zM126 575v73h306v-73h-306z" />
    <glyph glyph-name="Ubreve" unicode="&#x16c;" horiz-adv-x="707" 
d="M351 -15q-79 0 -139.5 33.5t-94.5 93t-34 137.5v451h85v-451q0 -55 23.5 -97.5t65.5 -66t96 -23.5q55 0 97.5 23.5t66 66t23.5 97.5v451h84v-451q0 -78 -34 -137.5t-96 -93t-143 -33.5zM355 739q-49 0 -87.5 17.5t-60.5 48.5t-22 70h77q0 -31 26 -51t67 -20q40 0 65.5 20
t25.5 51h77q0 -39 -21 -70t-59 -48.5t-88 -17.5z" />
    <glyph glyph-name="ubreve" unicode="&#x16d;" horiz-adv-x="558" 
d="M251 -12q-58 0 -101.5 23.5t-68 75t-24.5 133.5v280h80v-256q0 -74 17 -113t47.5 -53.5t68.5 -14.5q65 0 101.5 47t36.5 131v259h80v-500h-75l-4 75q-25 -42 -65 -64.5t-93 -22.5zM279 564q-49 0 -87.5 17.5t-60.5 48.5t-22 70h77q0 -31 26 -51t67 -20q40 0 65.5 20
t25.5 51h77q0 -39 -21 -70t-59 -48.5t-88 -17.5z" />
    <glyph glyph-name="Uring" unicode="&#x16e;" horiz-adv-x="707" 
d="M351 -15q-79 0 -139.5 33.5t-94.5 93t-34 137.5v451h85v-451q0 -55 23.5 -97.5t65.5 -66t96 -23.5q55 0 97.5 23.5t66 66t23.5 97.5v451h84v-451q0 -78 -34 -137.5t-96 -93t-143 -33.5zM354 732q-26 0 -48 12.5t-35.5 33.5t-13.5 46q0 26 13.5 47t35 33.5t48.5 12.5
q26 0 48 -12.5t34.5 -33.5t12.5 -47q0 -25 -12.5 -46t-34.5 -33.5t-48 -12.5zM354 786q36 0 36 38q0 39 -36 39q-37 0 -37 -39q0 -38 37 -38z" />
    <glyph glyph-name="uring" unicode="&#x16f;" horiz-adv-x="558" 
d="M251 -12q-58 0 -101.5 23.5t-68 75t-24.5 133.5v280h80v-256q0 -74 17 -113t47.5 -53.5t68.5 -14.5q65 0 101.5 47t36.5 131v259h80v-500h-75l-4 75q-25 -42 -65 -64.5t-93 -22.5zM279 557q-26 0 -48 12.5t-35.5 33.5t-13.5 46q0 26 13.5 47t35 33.5t48.5 12.5
q26 0 48 -12.5t34.5 -33.5t12.5 -47q0 -25 -12.5 -46t-34.5 -33.5t-48 -12.5zM279 611q36 0 36 38q0 39 -36 39q-37 0 -37 -39q0 -38 37 -38z" />
    <glyph glyph-name="Uhungarumlaut" unicode="&#x170;" horiz-adv-x="707" 
d="M351 -15q-79 0 -139.5 33.5t-94.5 93t-34 137.5v451h85v-451q0 -55 23.5 -97.5t65.5 -66t96 -23.5q55 0 97.5 23.5t66 66t23.5 97.5v451h84v-451q0 -78 -34 -137.5t-96 -93t-143 -33.5zM385 746l99 129h102l-110 -129h-91zM205 746l98 129h103l-110 -129h-91z" />
    <glyph glyph-name="uhungarumlaut" unicode="&#x171;" horiz-adv-x="558" 
d="M251 -12q-58 0 -101.5 23.5t-68 75t-24.5 133.5v280h80v-256q0 -74 17 -113t47.5 -53.5t68.5 -14.5q65 0 101.5 47t36.5 131v259h80v-500h-75l-4 75q-25 -42 -65 -64.5t-93 -22.5zM309 571l99 129h102l-110 -129h-91zM129 571l98 129h103l-110 -129h-91z" />
    <glyph glyph-name="Uogonek" unicode="&#x172;" horiz-adv-x="707" 
d="M351 -15q-79 0 -139.5 33.5t-94.5 93t-34 137.5v451h85v-451q0 -55 23.5 -97.5t65.5 -66t96 -23.5q55 0 97.5 23.5t66 66t23.5 97.5v451h84v-451q0 -78 -34 -137.5t-96 -93t-143 -33.5zM529 -198q-38 0 -67 11t-44.5 31t-15.5 49q0 32 15 61t42 54t64 44h18
q-25 -22 -40 -45.5t-21.5 -46.5t-6.5 -45t13 -35t36 -13q17 0 33.5 3t28.5 8l24 -57q-17 -10 -37.5 -14.5t-41.5 -4.5z" />
    <glyph glyph-name="uogonek" unicode="&#x173;" horiz-adv-x="558" 
d="M251 -12q-58 0 -101.5 23.5t-68 75t-24.5 133.5v280h80v-256q0 -74 17 -113t47.5 -53.5t68.5 -14.5q65 0 101.5 47t36.5 131v259h80v-500h-75l-4 75q-25 -42 -65 -64.5t-93 -22.5zM440 -212q-34 0 -60 10.5t-40 31.5t-14 52q0 37 29.5 69t67.5 59l65 -10q-33 -24 -61 -53
t-28 -63q0 -14 9.5 -22.5t26.5 -8.5t30.5 4.5t18.5 6.5l25 -57q-13 -9 -30.5 -14t-38.5 -5z" />
    <glyph glyph-name="Wcircumflex" unicode="&#x174;" horiz-adv-x="960" 
d="M223 0l-214 700h85l175 -571l169 571h84l166 -569l177 569h85l-217 -700h-91l-162 563l-167 -563h-90zM561 752l-131 127v3h98l121 -130h-88zM308 752l121 130h98v-3l-131 -127h-88z" />
    <glyph glyph-name="wcircumflex" unicode="&#x175;" horiz-adv-x="784" 
d="M180 0l-170 500h81l130 -388l132 388h80l130 -385l130 385h81l-170 -500h-80l-131 391l-132 -391h-81zM474 582l-131 127v3h98l121 -130h-88zM221 582l121 130h98v-3l-131 -127h-88z" />
    <glyph glyph-name="Ycircumflex" unicode="&#x176;" horiz-adv-x="604" 
d="M260 0v293l-251 407h98l195 -321l196 321h97l-251 -407v-293h-84zM383 752l-131 127v3h98l121 -130h-88zM130 752l121 130h98v-3l-131 -127h-88z" />
    <glyph glyph-name="ycircumflex" unicode="&#x177;" horiz-adv-x="526" 
d="M115 -212q-19 0 -44 7.5t-53 19.5l30 67q23 -10 40.5 -15t27.5 -5q27 0 44.5 14.5t29.5 41.5l34 84l-215 498h85l170 -405l168 405h86l-240 -570q-19 -44 -39.5 -76t-49.5 -49t-74 -17zM344 582l-131 127v3h98l121 -130h-88zM91 582l121 130h98v-3l-131 -127h-88z" />
    <glyph glyph-name="Ydieresis" unicode="&#x178;" horiz-adv-x="604" 
d="M260 0v293l-251 407h98l195 -321l196 321h97l-251 -407v-293h-84zM426 790q-20 0 -34 14.5t-14 33.5q0 20 14 34t34 14t34 -14t14 -34q0 -19 -14 -33.5t-34 -14.5zM179 790q-19 0 -33.5 14t-14.5 34t14.5 34t33.5 14q20 0 34 -14t14 -34t-14 -34t-34 -14z" />
    <glyph glyph-name="Zacute" unicode="&#x179;" horiz-adv-x="641" 
d="M47 0v78l441 544h-438v78h544v-78l-441 -544h438v-78h-544zM253 746l117 129h103l-129 -129h-91z" />
    <glyph glyph-name="zacute" unicode="&#x17a;" horiz-adv-x="491" 
d="M45 0v64l295 366h-295v70h399v-62l-296 -368h298v-70h-401zM177 571l117 129h103l-129 -129h-91z" />
    <glyph glyph-name="Zdotaccent" unicode="&#x17b;" horiz-adv-x="641" 
d="M47 0v78l441 544h-438v78h544v-78l-441 -544h438v-78h-544zM321 791q-20 0 -35 15t-15 35q0 21 15 35.5t35 14.5q21 0 35.5 -14.5t14.5 -35.5q0 -20 -14.5 -35t-35.5 -15z" />
    <glyph glyph-name="zdotaccent" unicode="&#x17c;" horiz-adv-x="491" 
d="M45 0v64l295 366h-295v70h399v-62l-296 -368h298v-70h-401zM244 616q-20 0 -35 15t-15 35q0 21 15 35.5t35 14.5q21 0 35.5 -14.5t14.5 -35.5q0 -20 -14.5 -35t-35.5 -15z" />
    <glyph glyph-name="Zcaron" unicode="&#x17d;" horiz-adv-x="641" 
d="M47 0v78l441 544h-438v78h544v-78l-441 -544h438v-78h-544zM276 746v1l125 128h90l-121 -129h-94zM270 746l-121 129h90l125 -128v-1h-94z" />
    <glyph glyph-name="zcaron" unicode="&#x17e;" horiz-adv-x="491" 
d="M45 0v64l295 366h-295v70h399v-62l-296 -368h298v-70h-401zM199 571v1l125 128h90l-121 -129h-94zM193 571l-121 129h90l125 -128v-1h-94z" />
    <glyph glyph-name="uni01CD" unicode="&#x1cd;" horiz-adv-x="677" 
d="M9 0l285 700h88l285 -700h-89l-81 199h-317l-81 -199h-90zM209 275h258l-129 319zM293 746v1l125 128h90l-121 -129h-94zM287 746l-121 129h90l125 -128v-1h-94z" />
    <glyph glyph-name="uni01CE" unicode="&#x1ce;" horiz-adv-x="509" 
d="M228 -12q-88 0 -137.5 40.5t-49.5 112.5q0 76 50.5 116.5t141.5 40.5h139q-5 71 -35 106.5t-90 35.5q-41 0 -70.5 -16.5t-48.5 -52.5l-72 28q19 35 46 60.5t63 39t82 13.5q70 0 115.5 -27.5t68.5 -81t22 -132.5l-1 -271h-74l-4 67q-22 -38 -59 -58.5t-87 -20.5zM232 58
q43 0 75 18.5t49.5 52.5t17.5 82v20h-123q-70 0 -99.5 -23t-29.5 -66q0 -39 29 -61.5t81 -22.5zM207 571v1l125 128h90l-121 -129h-94zM201 571l-121 129h90l125 -128v-1h-94z" />
    <glyph glyph-name="uni0218" unicode="&#x218;" horiz-adv-x="614" 
d="M317 -12q-58 0 -103 12.5t-78 35t-54 50t-31 58.5l81 28q15 -44 60.5 -76.5t111.5 -32.5q81 0 127 32t46 85q0 49 -41 79.5t-108 47.5l-77 20q-47 12 -86.5 35.5t-63 60t-23.5 87.5q0 95 61.5 148.5t177.5 53.5q69 0 119 -22.5t81.5 -57t44.5 -74.5l-80 -28
q-19 50 -64 78.5t-109 28.5q-67 0 -106.5 -32.5t-39.5 -88.5q0 -48 31 -73.5t81 -37.5l77 -19q102 -24 156.5 -79.5t54.5 -119.5q0 -55 -28 -100.5t-82.5 -72t-135.5 -26.5zM233 -200l46 140h87l-65 -140h-68z" />
    <glyph glyph-name="uni0219" unicode="&#x219;" horiz-adv-x="470" 
d="M245 -12q-55 0 -96 16.5t-68.5 43.5t-39.5 59l70 29q17 -34 51 -55t75 -21q47 0 79 18.5t32 52.5q0 31 -23.5 50t-69.5 31l-48 13q-68 18 -106 54.5t-38 82.5q0 71 46.5 110.5t138.5 39.5q44 0 80 -13t62 -36.5t38 -55.5l-70 -31q-13 34 -43 49t-73 15q-46 0 -72 -19.5
t-26 -54.5q0 -20 21.5 -37.5t63.5 -28.5l50 -13q49 -12 82 -35.5t50 -53.5t17 -64q0 -45 -24 -78t-65 -50.5t-94 -17.5zM161 -200l46 140h87l-65 -140h-68z" />
    <glyph glyph-name="uni021A" unicode="&#x21a;" horiz-adv-x="552" 
d="M234 0v623h-223v77h530v-77h-223v-623h-84zM192 -200l46 140h87l-65 -140h-68z" />
    <glyph glyph-name="uni021B" unicode="&#x21b;" horiz-adv-x="378" 
d="M258 -12q-73 0 -113 38t-40 107v296h-87v71h87v156h80v-156h150v-71h-150v-288q0 -38 20.5 -58.5t57.5 -20.5q12 0 23.5 3.5t30.5 17.5l31 -65q-26 -17 -47 -23.5t-43 -6.5zM127 -200l46 140h87l-65 -140h-68z" />
    <glyph glyph-name="uni0237" unicode="&#x237;" horiz-adv-x="258" 
d="M41 -215q-37 0 -94 26l30 67q24 -9 40.5 -14t26.5 -5q68 0 68 87v554h80v-556q0 -78 -38 -118.5t-113 -40.5z" />
    <glyph glyph-name="circumflex" unicode="&#x2c6;" horiz-adv-x="362" 
d="M263 582l-131 127v3h98l121 -130h-88zM10 582l121 130h98v-3l-131 -127h-88z" />
    <glyph glyph-name="caron" unicode="&#x2c7;" horiz-adv-x="362" 
d="M135 571v1l125 128h90l-121 -129h-94zM129 571l-121 129h90l125 -128v-1h-94z" />
    <glyph glyph-name="breve" unicode="&#x2d8;" horiz-adv-x="338" 
d="M170 564q-49 0 -87.5 17.5t-60.5 48.5t-22 70h77q0 -31 26 -51t67 -20q40 0 65.5 20t25.5 51h77q0 -39 -21 -70t-59 -48.5t-88 -17.5z" />
    <glyph glyph-name="dotaccent" unicode="&#x2d9;" horiz-adv-x="100" 
d="M50 616q-20 0 -35 15t-15 35q0 21 15 35.5t35 14.5q21 0 35.5 -14.5t14.5 -35.5q0 -20 -14.5 -35t-35.5 -15z" />
    <glyph glyph-name="ring" unicode="&#x2da;" horiz-adv-x="329" 
d="M170 557q-26 0 -48 12.5t-35 33.5t-13 46q0 26 13 47t35 33.5t48 12.5q27 0 48.5 -12.5t34.5 -33.5t13 -47q0 -25 -13 -46t-34.5 -33.5t-48.5 -12.5zM170 611q37 0 37 38q0 39 -37 39t-37 -39q0 -38 37 -38z" />
    <glyph glyph-name="ogonek" unicode="&#x2db;" horiz-adv-x="246" 
d="M151 -212q-34 0 -60 10.5t-40 31.5t-14 52q0 37 29.5 69t67.5 59l65 -10q-33 -24 -61 -53t-28 -63q0 -14 9.5 -22.5t26.5 -8.5t30.5 4.5t18.5 6.5l25 -57q-13 -9 -30.5 -14t-38.5 -5z" />
    <glyph glyph-name="tilde" unicode="&#x2dc;" horiz-adv-x="344" 
d="M234 566q-29 0 -47 11t-29.5 25t-21.5 25t-23 11q-16 0 -24.5 -8.5t-13.5 -29.5h-65q3 27 15.5 50.5t35 37.5t51.5 14q28 0 45 -11t29 -25t22.5 -25t25.5 -11q17 0 25 10t11 28h64q-5 -40 -30 -71t-70 -31z" />
    <glyph glyph-name="hungarumlaut" unicode="&#x2dd;" horiz-adv-x="394" 
d="M191 571l99 129h102l-110 -129h-91zM11 571l98 129h103l-110 -129h-91z" />
    <glyph glyph-name="gravecomb" unicode="&#x300;" horiz-adv-x="0" 
d="M258 571l-130 130h102l120 -130h-92z" />
    <glyph glyph-name="acutecomb" unicode="&#x301;" horiz-adv-x="0" 
d="M231 571l117 129h103l-129 -129h-91z" />
    <glyph glyph-name="uni0302" unicode="&#x302;" horiz-adv-x="0" 
d="M255 582l-131 127v3h98l121 -130h-88zM2 582l121 130h98v-3l-131 -127h-88z" />
    <glyph glyph-name="tildecomb" unicode="&#x303;" horiz-adv-x="0" 
d="M333 566q-29 0 -47 11t-29.5 25t-21.5 25t-23 11q-16 0 -24.5 -8.5t-13.5 -29.5h-65q3 27 15.5 50.5t35 37.5t51.5 14q28 0 45 -11t29 -25t22.5 -25t25.5 -11q17 0 25 10t11 28h64q-5 -40 -30 -71t-70 -31z" />
    <glyph glyph-name="uni0304" unicode="&#x304;" horiz-adv-x="0" 
d="M-3 575v73h306v-73h-306z" />
    <glyph glyph-name="uni0306" unicode="&#x306;" horiz-adv-x="0" 
d="M170 564q-49 0 -87.5 17.5t-60.5 48.5t-22 70h77q0 -31 26 -51t67 -20q40 0 65.5 20t25.5 51h77q0 -39 -21 -70t-59 -48.5t-88 -17.5z" />
    <glyph glyph-name="uni0307" unicode="&#x307;" horiz-adv-x="0" 
d="M50 616q-20 0 -35 15t-15 35q0 21 15 35.5t35 14.5q21 0 35.5 -14.5t14.5 -35.5q0 -20 -14.5 -35t-35.5 -15z" />
    <glyph glyph-name="uni0308" unicode="&#x308;" horiz-adv-x="0" 
d="M283 620q-20 0 -34 14.5t-14 33.5q0 20 14 34t34 14t34 -14t14 -34q0 -19 -14 -33.5t-34 -14.5zM36 620q-19 0 -33.5 14t-14.5 34t14.5 34t33.5 14q20 0 34 -14t14 -34t-14 -34t-34 -14z" />
    <glyph glyph-name="uni030A" unicode="&#x30a;" horiz-adv-x="0" 
d="M145 557q-26 0 -48 12.5t-35.5 33.5t-13.5 46q0 26 13.5 47t35 33.5t48.5 12.5q26 0 48 -12.5t34.5 -33.5t12.5 -47q0 -25 -12.5 -46t-34.5 -33.5t-48 -12.5zM145 611q36 0 36 38q0 39 -36 39q-37 0 -37 -39q0 -38 37 -38z" />
    <glyph glyph-name="uni030B" unicode="&#x30b;" horiz-adv-x="0" 
d="M181 571l99 129h102l-110 -129h-91zM1 571l98 129h103l-110 -129h-91z" />
    <glyph glyph-name="uni030C" unicode="&#x30c;" horiz-adv-x="0" 
d="M127 571v1l125 128h90l-121 -129h-94zM121 571l-121 129h90l125 -128v-1h-94z" />
    <glyph glyph-name="uni0312" unicode="&#x312;" horiz-adv-x="0" 
d="M146 713l-57 -132h-89l78 132h68z" />
    <glyph glyph-name="uni0326" unicode="&#x326;" horiz-adv-x="0" 
d="M12 -200l46 140h87l-65 -140h-68z" />
    <glyph glyph-name="uni0327" unicode="&#x327;" horiz-adv-x="0" 
d="M268 -210q-19 0 -42 5t-54 22l20 48q15 -7 32.5 -14t31.5 -7q18 0 32.5 7t14.5 29q0 25 -18.5 37.5t-57.5 18.5l30 70l53 -12l-11 -26q37 -13 52.5 -36.5t15.5 -49.5q0 -39 -23.5 -65.5t-75.5 -26.5z" />
    <glyph glyph-name="uni0328" unicode="&#x328;" horiz-adv-x="0" 
d="M151 -212q-34 0 -60 10.5t-40 31.5t-14 52q0 37 29.5 69t67.5 59l65 -10q-33 -24 -61 -53t-28 -63q0 -14 9.5 -22.5t26.5 -8.5t30.5 4.5t18.5 6.5l25 -57q-13 -9 -30.5 -14t-38.5 -5z" />
    <glyph glyph-name="Wgrave" unicode="&#x1e80;" horiz-adv-x="960" 
d="M223 0l-214 700h85l175 -571l169 571h84l166 -569l177 569h85l-217 -700h-91l-162 563l-167 -563h-90zM492 741l-130 130h102l120 -130h-92z" />
    <glyph glyph-name="wgrave" unicode="&#x1e81;" horiz-adv-x="784" 
d="M180 0l-170 500h81l130 -388l132 388h80l130 -385l130 385h81l-170 -500h-80l-131 391l-132 -391h-81zM405 571l-130 130h102l120 -130h-92z" />
    <glyph glyph-name="Wacute" unicode="&#x1e82;" horiz-adv-x="960" 
d="M223 0l-214 700h85l175 -571l169 571h84l166 -569l177 569h85l-217 -700h-91l-162 563l-167 -563h-90zM412 741l117 129h103l-129 -129h-91z" />
    <glyph glyph-name="wacute" unicode="&#x1e83;" horiz-adv-x="784" 
d="M180 0l-170 500h81l130 -388l132 388h80l130 -385l130 385h81l-170 -500h-80l-131 391l-132 -391h-81zM325 571l117 129h103l-129 -129h-91z" />
    <glyph glyph-name="Wdieresis" unicode="&#x1e84;" horiz-adv-x="960" 
d="M223 0l-214 700h85l175 -571l169 571h84l166 -569l177 569h85l-217 -700h-91l-162 563l-167 -563h-90zM603 790q-20 0 -34 14.5t-14 33.5q0 20 14 34t34 14t34 -14t14 -34q0 -19 -14 -33.5t-34 -14.5zM356 790q-19 0 -33.5 14t-14.5 34t14.5 34t33.5 14q20 0 34 -14
t14 -34t-14 -34t-34 -14z" />
    <glyph glyph-name="wdieresis" unicode="&#x1e85;" horiz-adv-x="784" 
d="M180 0l-170 500h81l130 -388l132 388h80l130 -385l130 385h81l-170 -500h-80l-131 391l-132 -391h-81zM517 620q-20 0 -34 14.5t-14 33.5q0 20 14 34t34 14t34 -14t14 -34q0 -19 -14 -33.5t-34 -14.5zM270 620q-19 0 -33.5 14t-14.5 34t14.5 34t33.5 14q20 0 34 -14
t14 -34t-14 -34t-34 -14z" />
    <glyph glyph-name="uni1E9E" unicode="&#x1e9e;" horiz-adv-x="580" 
d="M327 -12q-19 0 -52 9.5t-62 36.5l43 62q9 -6 26 -18t49 -12q59 0 89.5 33.5t30.5 92.5q0 58 -34.5 89.5t-98.5 31.5h-61v74l169 197q-20 21 -51 36.5t-81 15.5q-58 0 -87 -30t-29 -84v-522h-85v541q0 81 52.5 126t155.5 45q66 0 111 -20t74.5 -48t47.5 -51l-181 -214
q86 -7 133.5 -57t47.5 -136q0 -93 -53 -145.5t-154 -52.5z" />
    <glyph glyph-name="Ygrave" unicode="&#x1ef2;" horiz-adv-x="604" 
d="M260 0v293l-251 407h98l195 -321l196 321h97l-251 -407v-293h-84zM315 741l-130 130h102l120 -130h-92z" />
    <glyph glyph-name="ygrave" unicode="&#x1ef3;" horiz-adv-x="526" 
d="M115 -212q-19 0 -44 7.5t-53 19.5l30 67q23 -10 40.5 -15t27.5 -5q27 0 44.5 14.5t29.5 41.5l34 84l-215 498h85l170 -405l168 405h86l-240 -570q-19 -44 -39.5 -76t-49.5 -49t-74 -17zM275 571l-130 130h102l120 -130h-92z" />
    <glyph glyph-name="endash" unicode="&#x2013;" horiz-adv-x="550" 
d="M0 261v73h550v-73h-550z" />
    <glyph glyph-name="emdash" unicode="&#x2014;" horiz-adv-x="1100" 
d="M0 261v73h1100v-73h-1100z" />
    <glyph glyph-name="quoteleft" unicode="&#x2018;" horiz-adv-x="181" 
d="M163 700l-57 -212h-89l77 212h69z" />
    <glyph glyph-name="quoteright" unicode="&#x2019;" horiz-adv-x="181" 
d="M18 489l57 211h90l-78 -211h-69z" />
    <glyph glyph-name="quotesinglbase" unicode="&#x201a;" horiz-adv-x="212" 
d="M40 -115l57 211h90l-78 -211h-69z" />
    <glyph glyph-name="quotedblleft" unicode="&#x201c;" horiz-adv-x="330" 
d="M163 700l-57 -212h-89l77 212h69zM312 700l-57 -212h-89l77 212h69z" />
    <glyph glyph-name="quotedblright" unicode="&#x201d;" horiz-adv-x="330" 
d="M167 488l57 212h89l-78 -212h-68zM18 488l57 212h89l-78 -212h-68z" />
    <glyph glyph-name="quotedblbase" unicode="&#x201e;" horiz-adv-x="313" 
d="M166 -115l57 211h89l-78 -211h-68zM17 -115l56 211h90l-78 -211h-68z" />
    <glyph glyph-name="dagger" unicode="&#x2020;" horiz-adv-x="481" 
d="M199 0l12 465l-10 235h79l-10 -235l11 -465h-82zM25 429v75l215 -10l214 10v-75l-214 10z" />
    <glyph glyph-name="daggerdbl" unicode="&#x2021;" horiz-adv-x="481" 
d="M199 -200l11 232l-8 218l8 215l-10 235h79l-10 -235l9 -215l-9 -218l12 -232h-82zM27 -4v73l215 -9l213 9v-73l-213 10zM26 430v73l214 -9l214 9v-73l-214 9z" />
    <glyph glyph-name="bullet" unicode="&#x2022;" horiz-adv-x="489" 
d="M244 178q-29 0 -52.5 14.5t-37.5 38t-14 52.5t14 52.5t37.5 37.5t52.5 14t53 -14t38 -37.5t14 -52.5t-14 -52.5t-38 -38t-53 -14.5z" />
    <glyph glyph-name="ellipsis" unicode="&#x2026;" horiz-adv-x="613" 
d="M104 -14q-23 0 -39.5 16.5t-16.5 38.5q0 23 16.5 39.5t39.5 16.5t39 -16.5t16 -39.5q0 -22 -16 -38.5t-39 -16.5zM307 -14q-23 0 -39.5 16.5t-16.5 38.5q0 23 16.5 39.5t39.5 16.5t39 -16.5t16 -39.5q0 -22 -16 -38.5t-39 -16.5zM509 -14q-23 0 -39.5 16.5t-16.5 38.5
q0 23 16.5 39.5t39.5 16.5t39 -16.5t16 -39.5q0 -22 -16 -38.5t-39 -16.5z" />
    <glyph glyph-name="guilsinglleft" unicode="&#x2039;" horiz-adv-x="359" 
d="M204 96l-155 202l155 202h97l-153 -202l153 -202h-97z" />
    <glyph glyph-name="guilsinglright" unicode="&#x203a;" horiz-adv-x="359" 
d="M155 96h-97l153 202l-153 202h97l155 -202z" />
    <glyph glyph-name="fraction" unicode="&#x2044;" horiz-adv-x="218" 
d="M-173 0l481 700h82l-481 -700h-82z" />
    <glyph glyph-name="uni2070" unicode="&#x2070;" horiz-adv-x="406" 
d="M204 373q-50 0 -89 27.5t-61 76.5t-22 113q0 65 22 113.5t60.5 76t88.5 27.5q51 0 89 -27.5t60 -76t22 -113.5q0 -64 -22 -113t-60 -76.5t-88 -27.5zM204 439q44 0 71.5 42.5t27.5 108.5q0 67 -28 109.5t-72 42.5q-43 0 -70 -42.5t-27 -109.5q0 -66 27.5 -108.5
t70.5 -42.5z" />
    <glyph glyph-name="uni2074" unicode="&#x2074;" horiz-adv-x="392" 
d="M83 496l-53 30l188 274l44 -41zM30 468v58l43 5h298v-63h-341zM225 380v379l-7 41h76v-420h-69z" />
    <glyph glyph-name="uni2075" unicode="&#x2075;" horiz-adv-x="368" 
d="M187 373q-27 0 -56 9t-52.5 27.5t-36.5 44.5l65 23q15 -21 35 -31t42 -10q35 0 56.5 21t21.5 54q0 34 -21 55.5t-55 21.5q-20 0 -37 -8.5t-27 -21.5l-65 14l23 228h234v-66h-225l-9 64h73l-31 -231l-42 5q9 16 27 32.5t44 28.5t58 12q54 -1 90.5 -37t36.5 -93
q0 -63 -41.5 -102.5t-107.5 -39.5z" />
    <glyph glyph-name="uni2076" unicode="&#x2076;" horiz-adv-x="356" 
d="M186 373q-56 0 -90 27t-49 72.5t-15 99.5q0 51 10 93.5t31 74.5t53 49.5t74 17.5q32 0 64 -9.5t57 -27.5l-37 -53q-19 14 -41.5 20t-39.5 6q-50 0 -78.5 -44t-25.5 -136l-15 10q14 34 44 54.5t70 20.5q41 0 71.5 -18.5t48 -50t17.5 -71.5q0 -59 -41 -97t-108 -38z
M187 435q33 0 54.5 21.5t21.5 54.5q0 34 -21.5 55.5t-54.5 21.5t-54.5 -21.5t-21.5 -55.5t21.5 -55t54.5 -21z" />
    <glyph glyph-name="uni2077" unicode="&#x2077;" horiz-adv-x="341" 
d="M62 380l182 364l76 1l-178 -365h-80zM29 734v66h291v-55l-70 -11h-221z" />
    <glyph glyph-name="uni2078" unicode="&#x2078;" horiz-adv-x="390" 
d="M195 373q-74 0 -115.5 32t-41.5 84q0 55 41.5 90t115.5 35q73 0 114.5 -35t41.5 -90q0 -52 -41.5 -84t-114.5 -32zM195 434q35 0 58.5 18t23.5 46q0 30 -23 49t-59 19t-59 -19t-23 -49q0 -28 23 -46t59 -18zM195 626q31 0 51 17t20 42q0 28 -20 45.5t-51 17.5t-51 -17.5
t-20 -45.5q0 -25 20 -42t51 -17zM195 582q-67 0 -104.5 31t-37.5 80q0 50 37.5 82t104.5 32q66 0 104 -32t38 -82q0 -49 -38.5 -80t-103.5 -31z" />
    <glyph glyph-name="uni2079" unicode="&#x2079;" horiz-adv-x="356" 
d="M156 373q-32 0 -63.5 9.5t-56.5 27.5l37 53q19 -13 41 -19.5t39 -6.5q51 0 79 43.5t25 136.5l15 -10q-13 -34 -43 -54.5t-71 -20.5q-40 0 -71 18.5t-48.5 50.5t-17.5 71q0 58 41 96.5t108 38.5q57 0 90.5 -27.5t48.5 -72.5t15 -100q0 -49 -10 -91.5t-31 -74.5t-52.5 -50
t-74.5 -18zM169 592q33 0 54.5 22t21.5 55t-21.5 54.5t-54.5 21.5t-54.5 -21.5t-21.5 -54.5q0 -34 22 -55.5t54 -21.5z" />
    <glyph glyph-name="uni2080" unicode="&#x2080;" horiz-adv-x="406" 
d="M204 -106q-50 0 -89 27.5t-61 76.5t-22 113q0 65 22 113.5t60.5 76t88.5 27.5q51 0 89 -27.5t60 -76t22 -113.5q0 -64 -22 -113t-60 -76.5t-88 -27.5zM204 -40q44 0 71.5 42.5t27.5 108.5q0 67 -28 109.5t-72 42.5q-43 0 -70 -42.5t-27 -109.5q0 -66 27.5 -108.5
t70.5 -42.5z" />
    <glyph glyph-name="uni2081" unicode="&#x2081;" horiz-adv-x="281" 
d="M132 -100v381l7 39h63v-420h-70zM42 195v65q20 0 47 18t50 42l46 -46q-36 -38 -71 -60t-72 -19z" />
    <glyph glyph-name="uni2082" unicode="&#x2082;" horiz-adv-x="361" 
d="M108 -53l-72 8q0 18 10 38.5t28.5 41t42.5 38.5l70 51q20 15 36 35t16 40q0 27 -18.5 44.5t-51.5 17.5q-30 0 -49 -17.5t-26 -39.5l-74 14q6 29 26 53.5t51 40t71 15.5q67 0 106.5 -35.5t39.5 -91.5q0 -38 -20.5 -67t-56.5 -57l-69 -50q-14 -10 -27.5 -24t-22 -28.5
t-10.5 -26.5zM36 -100v55l55 10h228v-65h-283z" />
    <glyph glyph-name="uni2083" unicode="&#x2083;" horiz-adv-x="354" 
d="M181 -106q-55 0 -91.5 24t-48.5 60l66 22q11 -17 26.5 -30t42.5 -13q33 0 52.5 19t19.5 48q0 20 -10.5 35t-32.5 23.5t-56 8.5h-22v51h19q49 0 89 -15t63.5 -43t23.5 -68q0 -38 -19.5 -65.5t-51.5 -42t-70 -14.5zM127 102v50h22q44 0 67.5 14.5t23.5 42.5
q0 23 -17.5 39.5t-47.5 16.5q-19 0 -36.5 -9.5t-29.5 -31.5l-64 22q10 26 29.5 44.5t46.5 28t57 9.5q39 0 69 -14.5t48 -40t18 -58.5q0 -37 -23 -62t-61.5 -38t-82.5 -13h-19z" />
    <glyph glyph-name="uni2084" unicode="&#x2084;" horiz-adv-x="392" 
d="M83 16l-53 30l188 274l44 -41zM30 -12v58l43 5h298v-63h-341zM225 -100v379l-7 41h76v-420h-69z" />
    <glyph glyph-name="uni2085" unicode="&#x2085;" horiz-adv-x="368" 
d="M187 -106q-27 0 -56 9t-52.5 27.5t-36.5 44.5l65 23q15 -21 35 -31t42 -10q35 0 56.5 21t21.5 54q0 34 -21 55.5t-55 21.5q-20 0 -37 -8.5t-27 -21.5l-65 14l23 228h234v-66h-225l-9 64h73l-31 -231l-42 5q9 16 27 32.5t44 28.5t58 12q54 -1 90.5 -37t36.5 -93
q0 -63 -41.5 -102.5t-107.5 -39.5z" />
    <glyph glyph-name="uni2086" unicode="&#x2086;" horiz-adv-x="356" 
d="M186 -106q-56 0 -90 27t-49 72.5t-15 99.5q0 51 10 93.5t31 74.5t53 49.5t74 17.5q32 0 64 -9.5t57 -27.5l-37 -53q-19 14 -41.5 20t-39.5 6q-50 0 -78.5 -44t-25.5 -136l-15 10q14 34 44 54.5t70 20.5q41 0 71.5 -18.5t48 -50t17.5 -71.5q0 -59 -41 -97t-108 -38z
M187 -44q33 0 54.5 21.5t21.5 54.5q0 34 -21.5 55.5t-54.5 21.5t-54.5 -21.5t-21.5 -55.5t21.5 -55t54.5 -21z" />
    <glyph glyph-name="uni2087" unicode="&#x2087;" horiz-adv-x="341" 
d="M62 -100l182 364l76 1l-178 -365h-80zM29 254v66h291v-55l-70 -11h-221z" />
    <glyph glyph-name="uni2088" unicode="&#x2088;" horiz-adv-x="390" 
d="M195 -106q-74 0 -115.5 32t-41.5 84q0 55 41.5 90t115.5 35q73 0 114.5 -35t41.5 -90q0 -52 -41.5 -84t-114.5 -32zM195 -45q35 0 58.5 18t23.5 46q0 30 -23 49t-59 19t-59 -19t-23 -49q0 -28 23 -46t59 -18zM195 147q31 0 51 17t20 42q0 28 -20 45.5t-51 17.5t-51 -17.5
t-20 -45.5q0 -25 20 -42t51 -17zM195 103q-67 0 -104.5 31t-37.5 80q0 50 37.5 82t104.5 32q66 0 104 -32t38 -82q0 -49 -38.5 -80t-103.5 -31z" />
    <glyph glyph-name="uni2089" unicode="&#x2089;" horiz-adv-x="356" 
d="M156 -106q-32 0 -63.5 9.5t-56.5 27.5l37 53q19 -13 41 -19.5t39 -6.5q51 0 79 43.5t25 136.5l15 -10q-13 -34 -43 -54.5t-71 -20.5q-40 0 -71 18.5t-48.5 50.5t-17.5 71q0 58 41 96.5t108 38.5q57 0 90.5 -27.5t48.5 -72.5t15 -100q0 -49 -10 -91.5t-31 -74.5t-52.5 -50
t-74.5 -18zM169 113q33 0 54.5 22t21.5 55t-21.5 54.5t-54.5 21.5t-54.5 -21.5t-21.5 -54.5q0 -34 22 -55.5t54 -21.5z" />
    <glyph glyph-name="Euro" unicode="&#x20ac;" horiz-adv-x="662" 
d="M382 -12q-83 0 -147.5 46.5t-101 128t-36.5 187.5t36 187.5t100 128t146 46.5q52 0 100 -22.5t85.5 -62.5t58.5 -92l-72 -37q-16 41 -42.5 71.5t-60.5 48t-69 17.5q-57 0 -101.5 -36.5t-69.5 -100.5t-25 -148q0 -83 25 -148t70 -101t104 -36q36 0 69.5 18.5t60 52
t41.5 76.5l73 -37q-21 -54 -59 -97t-85.5 -66.5t-99.5 -23.5zM18 257v57h437v-57h-437zM18 386v57h437v-57h-437z" />
    <glyph glyph-name="uni20B9" unicode="&#x20b9;" horiz-adv-x="622" 
d="M375 0l-282 266v68h144q53 0 94.5 30t52.5 80h-291v70h291q-10 51 -48.5 81t-95.5 30h-147v75h445l-3 -71h-128q25 -21 42 -50.5t22 -64.5h67l-3 -70h-64q-7 -51 -38 -91.5t-78.5 -64t-106.5 -25.5l-37 -1l278 -262h-114z" />
    <glyph glyph-name="trademark" unicode="&#x2122;" horiz-adv-x="857" 
d="M601 386l-135 197v-303h-73v420h79l129 -191l129 191h78v-420h-72v305zM136 280v354h-128v66h329v-66h-129v-354h-72z" />
    <glyph glyph-name="oneeighth" unicode="&#x215b;" horiz-adv-x="889" 
d="M132 280v381l7 39h63v-420h-70zM42 575v65q20 0 47 18t50 42l46 -46q-36 -38 -71 -60t-72 -19zM108 0l481 700h82l-481 -700h-82zM694 -6q-74 0 -115.5 32t-41.5 84q0 55 41.5 90t115.5 35q73 0 114.5 -35t41.5 -90q0 -52 -41.5 -84t-114.5 -32zM694 55q35 0 58.5 18
t23.5 46q0 30 -23 49t-59 19t-59 -19t-23 -49q0 -28 23 -46t59 -18zM694 247q31 0 51 17t20 42q0 28 -20 45.5t-51 17.5t-51 -17.5t-20 -45.5q0 -25 20 -42t51 -17zM694 203q-67 0 -104.5 31t-37.5 80q0 50 37.5 82t104.5 32q66 0 104 -32t38 -82q0 -49 -38.5 -80
t-103.5 -31z" />
    <glyph glyph-name="threeeighths" unicode="&#x215c;" horiz-adv-x="961" 
d="M181 273q-55 0 -91.5 24t-48.5 60l66 22q11 -17 26.5 -30t42.5 -13q33 0 52.5 19t19.5 48q0 20 -10.5 35t-32.5 23.5t-56 8.5h-22v51h19q49 0 89 -15t63.5 -43t23.5 -68q0 -38 -19.5 -65.5t-51.5 -42t-70 -14.5zM127 481v50h22q44 0 67.5 14.5t23.5 42.5q0 23 -17.5 39.5
t-47.5 16.5q-19 0 -36.5 -9.5t-29.5 -31.5l-64 22q10 26 29.5 44.5t46.5 28t57 9.5q39 0 69 -14.5t48 -40t18 -58.5q0 -37 -23 -62t-61.5 -38t-82.5 -13h-19zM181 0l481 700h82l-481 -700h-82zM767 -6q-74 0 -115.5 32t-41.5 84q0 55 41.5 90t115.5 35q73 0 114.5 -35
t41.5 -90q0 -52 -41.5 -84t-114.5 -32zM767 55q35 0 58.5 18t23.5 46q0 30 -23 49t-59 19t-59 -19t-23 -49q0 -28 23 -46t59 -18zM767 247q31 0 51 17t20 42q0 28 -20 45.5t-51 17.5t-51 -17.5t-20 -45.5q0 -25 20 -42t51 -17zM767 203q-67 0 -104.5 31t-37.5 80
q0 50 37.5 82t104.5 32q66 0 104 -32t38 -82q0 -49 -38.5 -80t-103.5 -31z" />
    <glyph glyph-name="fiveeighths" unicode="&#x215d;" horiz-adv-x="976" 
d="M187 273q-27 0 -56 9t-52.5 27.5t-36.5 44.5l65 23q15 -21 35 -31t42 -10q35 0 56.5 21t21.5 54q0 34 -21 55.5t-55 21.5q-20 0 -37 -8.5t-27 -21.5l-65 14l23 228h234v-66h-225l-9 64h73l-31 -231l-42 5q9 16 27 32.5t44 28.5t58 12q54 -1 90.5 -37t36.5 -93
q0 -63 -41.5 -102.5t-107.5 -39.5zM195 0l481 700h82l-481 -700h-82zM781 -6q-74 0 -115.5 32t-41.5 84q0 55 41.5 90t115.5 35q73 0 114.5 -35t41.5 -90q0 -52 -41.5 -84t-114.5 -32zM781 55q35 0 58.5 18t23.5 46q0 30 -23 49t-59 19t-59 -19t-23 -49q0 -28 23 -46t59 -18
zM781 247q31 0 51 17t20 42q0 28 -20 45.5t-51 17.5t-51 -17.5t-20 -45.5q0 -25 20 -42t51 -17zM781 203q-67 0 -104.5 31t-37.5 80q0 50 37.5 82t104.5 32q66 0 104 -32t38 -82q0 -49 -38.5 -80t-103.5 -31z" />
    <glyph glyph-name="seveneighths" unicode="&#x215e;" horiz-adv-x="912" 
d="M62 280l182 364l76 1l-178 -365h-80zM29 634v66h291v-55l-70 -11h-221zM131 0l481 700h82l-481 -700h-82zM717 -6q-74 0 -115.5 32t-41.5 84q0 55 41.5 90t115.5 35q73 0 114.5 -35t41.5 -90q0 -52 -41.5 -84t-114.5 -32zM717 55q35 0 58.5 18t23.5 46q0 30 -23 49
t-59 19t-59 -19t-23 -49q0 -28 23 -46t59 -18zM717 247q31 0 51 17t20 42q0 28 -20 45.5t-51 17.5t-51 -17.5t-20 -45.5q0 -25 20 -42t51 -17zM717 203q-67 0 -104.5 31t-37.5 80q0 50 37.5 82t104.5 32q66 0 104 -32t38 -82q0 -49 -38.5 -80t-103.5 -31z" />
    <glyph glyph-name="arrowleft" unicode="&#x2190;" horiz-adv-x="743" 
d="M132 261l-73 37l302 261l46 -55zM675 262h-550v73h550v-73zM362 39l-303 259l73 38l276 -243z" />
    <glyph glyph-name="arrowup" unicode="&#x2191;" horiz-adv-x="700" 
d="M388 639l-244 -275l-54 47l261 301zM387 0h-73v646h73v-646zM610 410l-55 -47l-242 276l38 73z" />
    <glyph glyph-name="arrowright" unicode="&#x2192;" horiz-adv-x="743" 
d="M611 260l-275 243l46 55l302 -261zM68 261v73h550v-73h-550zM381 38l-46 55l276 242l73 -38z" />
    <glyph glyph-name="arrowdown" unicode="&#x2193;" horiz-adv-x="700" 
d="M388 61l-37 -73l-261 301l54 47zM387 700v-646h-73v646h73zM610 290l-259 -302l-38 73l242 276z" />
    <glyph glyph-name="uni2196" unicode="&#x2196;" horiz-adv-x="707" 
d="M614 243l-51 -51l-449 449l51 51zM168 318h-75v395l74 -29zM489 639h-367l-29 74h396v-74z" />
    <glyph glyph-name="uni2197" unicode="&#x2197;" horiz-adv-x="708" 
d="M144 179l-51 51l449 449l51 -51zM219 626v74h396l-30 -74h-366zM540 304l1 367l74 29v-396h-75z" />
    <glyph glyph-name="uni2198" unicode="&#x2198;" horiz-adv-x="707" 
d="M93 467l51 51l449 -449l-51 -51zM540 392h74v-395l-74 29v366zM218 71h367l29 -74h-396v74z" />
    <glyph glyph-name="uni2199" unicode="&#x2199;" horiz-adv-x="708" 
d="M564 521l51 -51l-449 -449l-51 51zM489 74v-74h-396l30 74h366zM168 396l-1 -367l-74 -29v396h75z" />
    <glyph glyph-name="minus" unicode="&#x2212;" 
d="M121 262v71h382v-71h-382z" />
    <glyph glyph-name="uni2215" unicode="&#x2215;" 
d="M34 0l482 700h74l-482 -700h-74z" />
    <glyph glyph-name="notequal" unicode="&#x2260;" 
d="M157 71l249 512h76l-249 -512h-76zM112 393v70h400v-70h-400zM112 193v70h400v-70h-400z" />
    <glyph glyph-name="lessequal" unicode="&#x2264;" 
d="M478 0h-342v63h342v-63zM478 113l-342 158v76l342 156v-76l-256 -118l256 -121v-75z" />
    <glyph glyph-name="greaterequal" unicode="&#x2265;" 
d="M145 0v63h343v-63h-343zM145 113v75l256 121l-256 118v76l343 -156v-76z" />
    <glyph glyph-name="uni004A0301" horiz-adv-x="515" 
d="M197 -12q-36 0 -66.5 10.5t-54.5 28t-41 40t-28 46.5l64 37q21 -37 51.5 -61t75.5 -24q36 0 70.5 17t56.5 57t22 105v456h84v-489q0 -55 -19.5 -97t-53 -70t-75.5 -42t-86 -14zM321 741l117 129h103l-129 -129h-91z" />
    <glyph glyph-name="I.ss02" horiz-adv-x="381" 
d="M47 0v77h101v546h-101v77h287v-77h-101v-546h101v-77h-287z" />
    <glyph glyph-name="IJ.ss02" horiz-adv-x="895" 
d="M47 0v77h101v546h-101v77h287v-77h-101v-546h101v-77h-287zM578 -12q-36 0 -66.5 10.5t-54.5 28t-41 40t-28 46.5l64 37q21 -37 51.5 -61t75.5 -24q36 0 70.5 17t56.5 57t22 105v456h84v-489q0 -55 -19.5 -97t-53 -70t-75.5 -42t-86 -14z" />
    <glyph glyph-name="Iacute.ss02" horiz-adv-x="381" 
d="M47 0v77h101v546h-101v77h287v-77h-101v-546h101v-77h-287zM123 742l117 123h103l-129 -123h-91z" />
    <glyph glyph-name="Icircumflex.ss02" horiz-adv-x="381" 
d="M47 0v77h101v546h-101v77h287v-77h-101v-546h101v-77h-287zM272 757l-131 127v3h98l121 -130h-88zM19 757l121 130h98v-3l-131 -127h-88z" />
    <glyph glyph-name="Idieresis.ss02" horiz-adv-x="381" 
d="M260 795q-19 0 -33.5 14.5t-14.5 33.5q0 20 14.5 34t33.5 14q20 0 34 -14t14 -34q0 -19 -14 -33.5t-34 -14.5zM126 795q-19 0 -33.5 14t-14.5 34t14.5 34t33.5 14q20 0 34 -14t14 -34t-14 -34t-34 -14zM47 0v77h101v546h-101v77h287v-77h-101v-546h101v-77h-287z" />
    <glyph glyph-name="Idotaccent.ss02" horiz-adv-x="381" 
d="M47 0v77h101v546h-101v77h287v-77h-101v-546h101v-77h-287zM191 791q-20 0 -35 15t-15 35q0 21 15 35.5t35 14.5q21 0 35.5 -14.5t14.5 -35.5q0 -20 -14.5 -35t-35.5 -15z" />
    <glyph glyph-name="Igrave.ss02" horiz-adv-x="381" 
d="M47 0v77h101v546h-101v77h287v-77h-101v-546h101v-77h-287zM203 746l-130 130h102l120 -130h-92z" />
    <glyph glyph-name="Imacron.ss02" horiz-adv-x="381" 
d="M47 0v77h101v546h-101v77h287v-77h-101v-546h101v-77h-287zM38 750v73h306v-73h-306z" />
    <glyph glyph-name="Iogonek.ss02" horiz-adv-x="381" 
d="M47 0v77h101v546h-101v77h287v-77h-101v-546h101v-77h-287zM184 -212q-34 0 -60 10.5t-40 31.5t-14 52q0 37 29.5 69t67.5 59l65 -10q-33 -24 -61 -53t-28 -63q0 -14 9.5 -22.5t26.5 -8.5t30.5 4.5t18.5 6.5l25 -57q-13 -9 -30.5 -14t-38.5 -5z" />
    <glyph glyph-name="i.loclTRK" horiz-adv-x="232" 
d="M75 0v500h80v-500h-80zM116 616q-20 0 -35 15t-15 35q0 21 15 35.5t35 14.5q21 0 35.5 -14.5t14.5 -35.5q0 -20 -14.5 -35t-35.5 -15z" />
    <glyph glyph-name="uni006A0301" horiz-adv-x="258" 
d="M41 -215q-37 0 -94 26l30 67q24 -9 40.5 -14t26.5 -5q68 0 68 87v554h80v-556q0 -78 -38 -118.5t-113 -40.5zM84 571l117 129h103l-129 -129h-91z" />
    <glyph glyph-name="a.ss01" horiz-adv-x="586" 
d="M267 -12q-67 0 -118 33t-79.5 92.5t-28.5 136.5q0 78 28.5 137t79.5 92t118 33q55 0 98.5 -25.5t70.5 -70.5v84h80v-500h-76l-4 85q-27 -45 -70.5 -71t-98.5 -26zM285 61q44 0 77.5 23.5t53 66t20.5 95.5v7q-1 54 -20.5 96.5t-53.5 66t-78 23.5q-47 0 -83.5 -24
t-57.5 -67t-21 -98t21 -98t58 -67t84 -24z" />
    <glyph glyph-name="aacute.ss01" horiz-adv-x="586" 
d="M267 -12q-67 0 -118 33t-79.5 92.5t-28.5 136.5q0 78 28.5 137t79.5 92t118 33q55 0 98.5 -25.5t70.5 -70.5v84h80v-500h-76l-4 85q-27 -45 -70.5 -71t-98.5 -26zM285 61q44 0 77.5 23.5t53 66t20.5 95.5v7q-1 54 -20.5 96.5t-53.5 66t-78 23.5q-47 0 -83.5 -24
t-57.5 -67t-21 -98t21 -98t58 -67t84 -24zM215 571l117 129h103l-129 -129h-91z" />
    <glyph glyph-name="abreve.ss01" horiz-adv-x="586" 
d="M267 -12q-67 0 -118 33t-79.5 92.5t-28.5 136.5q0 78 28.5 137t79.5 92t118 33q55 0 98.5 -25.5t70.5 -70.5v84h80v-500h-76l-4 85q-27 -45 -70.5 -71t-98.5 -26zM285 61q44 0 77.5 23.5t53 66t20.5 95.5v7q-1 54 -20.5 96.5t-53.5 66t-78 23.5q-47 0 -83.5 -24
t-57.5 -67t-21 -98t21 -98t58 -67t84 -24zM283 564q-49 0 -87.5 17.5t-60.5 48.5t-22 70h77q0 -31 26 -51t67 -20q40 0 65.5 20t25.5 51h77q0 -39 -21 -70t-59 -48.5t-88 -17.5z" />
    <glyph glyph-name="uni01CE.ss01" horiz-adv-x="586" 
d="M267 -12q-67 0 -118 33t-79.5 92.5t-28.5 136.5q0 78 28.5 137t79.5 92t118 33q55 0 98.5 -25.5t70.5 -70.5v84h80v-500h-76l-4 85q-27 -45 -70.5 -71t-98.5 -26zM285 61q44 0 77.5 23.5t53 66t20.5 95.5v7q-1 54 -20.5 96.5t-53.5 66t-78 23.5q-47 0 -83.5 -24
t-57.5 -67t-21 -98t21 -98t58 -67t84 -24zM238 571v1l125 128h90l-121 -129h-94zM232 571l-121 129h90l125 -128v-1h-94z" />
    <glyph glyph-name="acircumflex.ss01" horiz-adv-x="586" 
d="M267 -12q-67 0 -118 33t-79.5 92.5t-28.5 136.5q0 78 28.5 137t79.5 92t118 33q55 0 98.5 -25.5t70.5 -70.5v84h80v-500h-76l-4 85q-27 -45 -70.5 -71t-98.5 -26zM285 61q44 0 77.5 23.5t53 66t20.5 95.5v7q-1 54 -20.5 96.5t-53.5 66t-78 23.5q-47 0 -83.5 -24
t-57.5 -67t-21 -98t21 -98t58 -67t84 -24zM364 582l-131 127v3h98l121 -130h-88zM111 582l121 130h98v-3l-131 -127h-88z" />
    <glyph glyph-name="adieresis.ss01" horiz-adv-x="586" 
d="M267 -12q-67 0 -118 33t-79.5 92.5t-28.5 136.5q0 78 28.5 137t79.5 92t118 33q55 0 98.5 -25.5t70.5 -70.5v84h80v-500h-76l-4 85q-27 -45 -70.5 -71t-98.5 -26zM285 61q44 0 77.5 23.5t53 66t20.5 95.5v7q-1 54 -20.5 96.5t-53.5 66t-78 23.5q-47 0 -83.5 -24
t-57.5 -67t-21 -98t21 -98t58 -67t84 -24zM407 620q-20 0 -34 14.5t-14 33.5q0 20 14 34t34 14t34 -14t14 -34q0 -19 -14 -33.5t-34 -14.5zM160 620q-19 0 -33.5 14t-14.5 34t14.5 34t33.5 14q20 0 34 -14t14 -34t-14 -34t-34 -14z" />
    <glyph glyph-name="agrave.ss01" horiz-adv-x="586" 
d="M267 -12q-67 0 -118 33t-79.5 92.5t-28.5 136.5q0 78 28.5 137t79.5 92t118 33q55 0 98.5 -25.5t70.5 -70.5v84h80v-500h-76l-4 85q-27 -45 -70.5 -71t-98.5 -26zM285 61q44 0 77.5 23.5t53 66t20.5 95.5v7q-1 54 -20.5 96.5t-53.5 66t-78 23.5q-47 0 -83.5 -24
t-57.5 -67t-21 -98t21 -98t58 -67t84 -24zM296 571l-130 130h102l120 -130h-92z" />
    <glyph glyph-name="amacron.ss01" horiz-adv-x="586" 
d="M267 -12q-67 0 -118 33t-79.5 92.5t-28.5 136.5q0 78 28.5 137t79.5 92t118 33q55 0 98.5 -25.5t70.5 -70.5v84h80v-500h-76l-4 85q-27 -45 -70.5 -71t-98.5 -26zM285 61q44 0 77.5 23.5t53 66t20.5 95.5v7q-1 54 -20.5 96.5t-53.5 66t-78 23.5q-47 0 -83.5 -24
t-57.5 -67t-21 -98t21 -98t58 -67t84 -24zM130 575v73h306v-73h-306z" />
    <glyph glyph-name="aogonek.ss01" horiz-adv-x="586" 
d="M267 -12q-67 0 -118 33t-79.5 92.5t-28.5 136.5q0 78 28.5 137t79.5 92t118 33q55 0 98.5 -25.5t70.5 -70.5v84h80v-500h-76l-4 85q-27 -45 -70.5 -71t-98.5 -26zM285 61q44 0 77.5 23.5t53 66t20.5 95.5v7q-1 54 -20.5 96.5t-53.5 66t-78 23.5q-47 0 -83.5 -24
t-57.5 -67t-21 -98t21 -98t58 -67t84 -24zM468 -212q-34 0 -60 10.5t-40 31.5t-14 52q0 37 29.5 69t67.5 59l65 -10q-33 -24 -61 -53t-28 -63q0 -14 9.5 -22.5t26.5 -8.5t30.5 4.5t18.5 6.5l25 -57q-13 -9 -30.5 -14t-38.5 -5z" />
    <glyph glyph-name="aring.ss01" horiz-adv-x="586" 
d="M267 -12q-67 0 -118 33t-79.5 92.5t-28.5 136.5q0 78 28.5 137t79.5 92t118 33q55 0 98.5 -25.5t70.5 -70.5v84h80v-500h-76l-4 85q-27 -45 -70.5 -71t-98.5 -26zM285 61q44 0 77.5 23.5t53 66t20.5 95.5v7q-1 54 -20.5 96.5t-53.5 66t-78 23.5q-47 0 -83.5 -24
t-57.5 -67t-21 -98t21 -98t58 -67t84 -24zM283 557q-26 0 -48 12.5t-35.5 33.5t-13.5 46q0 26 13.5 47t35 33.5t48.5 12.5q26 0 48 -12.5t34.5 -33.5t12.5 -47q0 -25 -12.5 -46t-34.5 -33.5t-48 -12.5zM283 611q36 0 36 38q0 39 -36 39q-37 0 -37 -39q0 -38 37 -38z" />
    <glyph glyph-name="atilde.ss01" horiz-adv-x="586" 
d="M267 -12q-67 0 -118 33t-79.5 92.5t-28.5 136.5q0 78 28.5 137t79.5 92t118 33q55 0 98.5 -25.5t70.5 -70.5v84h80v-500h-76l-4 85q-27 -45 -70.5 -71t-98.5 -26zM285 61q44 0 77.5 23.5t53 66t20.5 95.5v7q-1 54 -20.5 96.5t-53.5 66t-78 23.5q-47 0 -83.5 -24
t-57.5 -67t-21 -98t21 -98t58 -67t84 -24zM365 566q-29 0 -47 11t-29.5 25t-21.5 25t-23 11q-16 0 -24.5 -8.5t-13.5 -29.5h-65q3 27 15.5 50.5t35 37.5t51.5 14q28 0 45 -11t29 -25t22.5 -25t25.5 -11q17 0 25 10t11 28h64q-5 -40 -30 -71t-70 -31z" />
    <glyph glyph-name="l.ss02" horiz-adv-x="293" 
d="M205 -12q-64 0 -99.5 38t-35.5 107v567h80v-559q0 -37 16 -57.5t45 -20.5q10 0 21 3.5t30 16.5l31 -65q-26 -17 -46.5 -23.5t-41.5 -6.5z" />
    <glyph glyph-name="lacute.ss02" horiz-adv-x="293" 
d="M205 -12q-64 0 -99.5 38t-35.5 107v567h80v-559q0 -37 16 -57.5t45 -20.5q10 0 21 3.5t30 16.5l31 -65q-26 -17 -46.5 -23.5t-41.5 -6.5zM42 746l117 129h103l-129 -129h-91z" />
    <glyph glyph-name="lcaron.ss02" horiz-adv-x="293" 
d="M205 -12q-64 0 -99.5 38t-35.5 107v567h80v-559q0 -37 16 -57.5t45 -20.5q10 0 21 3.5t30 16.5l31 -65q-26 -17 -46.5 -23.5t-41.5 -6.5zM174 531l49 168h85l-66 -168h-68z" />
    <glyph glyph-name="uni013C.ss02" horiz-adv-x="293" 
d="M205 -12q-64 0 -99.5 38t-35.5 107v567h80v-559q0 -37 16 -57.5t45 -20.5q10 0 21 3.5t30 16.5l31 -65q-26 -17 -46.5 -23.5t-41.5 -6.5zM107 -200l46 140h87l-65 -140h-68z" />
    <glyph glyph-name="lslash.ss02" horiz-adv-x="323" 
d="M17 258v72l248 121v-71zM235 -12q-64 0 -99.5 38t-35.5 107v567h80v-559q0 -37 16 -57.5t45 -20.5q10 0 21 3.5t30 16.5l31 -65q-26 -17 -46.5 -23.5t-41.5 -6.5z" />
    <glyph glyph-name="zero.ss02" horiz-adv-x="641" 
d="M320 -12q-80 0 -142 46.5t-97 128t-35 187.5t35 187.5t96.5 128t142.5 46.5t142.5 -46.5t97 -128t35.5 -187.5t-35 -187.5t-97 -128t-143 -46.5zM320 64q56 0 99.5 37t68 101t24.5 148t-24.5 148.5t-68 101t-99.5 36.5t-99 -36.5t-67.5 -101t-24.5 -148.5t24.5 -148
t68 -101t98.5 -37zM112 158l360 413l57 -39l-352 -402z" />
    <glyph glyph-name="zero.tf" 
d="M311 -12q-80 0 -142 46.5t-97 128t-35 187.5t35 187.5t96.5 128t142.5 46.5t142.5 -46.5t97 -128t35.5 -187.5t-35 -187.5t-97 -128t-143 -46.5zM311 64q56 0 99.5 37t68 101t24.5 148t-24.5 148.5t-68 101t-99.5 36.5t-99 -36.5t-67.5 -101t-24.5 -148.5t24.5 -148
t68 -101t98.5 -37z" />
    <glyph glyph-name="one.tf" 
d="M147 0v75h392v-75h-392zM304 0v589q-38 -31 -78 -50.5t-79 -18.5v77q20 -1 49.5 14t60.5 39t54 50h76v-700h-83z" />
    <glyph glyph-name="two.tf" 
d="M96 0v70q0 33 13.5 65.5t39 64.5t62.5 60l145 109q26 18 45.5 41.5t30.5 49t11 49.5q0 35 -17 63.5t-48 45.5t-73 17q-41 0 -72 -15.5t-51 -41t-29 -54.5l-86 17q12 45 43.5 84t80.5 63t109 24q70 0 121 -26.5t79.5 -72t28.5 -103.5q0 -55 -30 -104t-87 -95l-137 -104
q-40 -30 -61.5 -63t-24.5 -69h350v-75h-443z" />
    <glyph glyph-name="three.tf" 
d="M305 -12q-51 0 -92.5 15.5t-71 40.5t-46.5 53l70 39q11 -14 27.5 -31.5t42.5 -29.5t64 -12q68 0 109 39t41 98q0 45 -24.5 76t-70.5 47t-110 16h-19v72h19q86 0 136.5 29.5t50.5 84.5q0 30 -16 55.5t-46.5 41t-70.5 15.5q-27 0 -50.5 -7.5t-43 -22t-35.5 -36.5l-66 38
q19 31 48.5 54t67.5 36t83 13q61 0 109.5 -24t76.5 -65.5t28 -93.5q0 -53 -30 -91.5t-82 -61.5q60 -26 94.5 -71.5t34.5 -110.5q0 -62 -30.5 -108.5t-82.5 -72t-115 -25.5z" />
    <glyph glyph-name="four.tf" 
d="M108 196l-63 39l318 465l55 -48zM45 170v65l54 10h492v-75h-546zM367 0v646l-4 54h86v-700h-82z" />
    <glyph glyph-name="five.tf" 
d="M314 -12q-42 0 -85.5 12.5t-82 38.5t-63.5 67l68 39q35 -44 76 -64t85 -20q69 0 112.5 42.5t43.5 111.5q0 68 -42 111t-110 43q-37 0 -73 -16.5t-56 -40.5l-76 18l34 370h373v-76h-298l-21 -223q28 17 62 27t69 10q64 0 114 -28t79 -78t29 -115q0 -68 -30.5 -119.5
t-84 -80.5t-123.5 -29z" />
    <glyph glyph-name="six.tf" 
d="M327 -12q-72 0 -121 27.5t-78 74.5t-41.5 108.5t-12.5 130.5q0 90 18.5 161t53.5 120.5t85 75.5t113 26q52 0 103.5 -16.5t91.5 -45.5l-47 -60q-32 22 -69 34.5t-71 12.5q-102 0 -155 -86t-47 -261l-18 18q24 61 77 96.5t125 35.5q67 0 119.5 -29t82 -80.5t29.5 -117.5
q0 -65 -30 -116.5t-83.5 -80t-124.5 -28.5zM327 62q45 0 79.5 19.5t54 54t19.5 79.5t-19.5 79.5t-54 53.5t-79.5 19q-44 0 -79 -19t-55 -53.5t-20 -79.5t20 -79.5t55 -54t79 -19.5z" />
    <glyph glyph-name="seven.tf" 
d="M125 0l332 623h-372v77h465v-70l-332 -630h-93z" />
    <glyph glyph-name="eight.tf" 
d="M310 -12q-75 0 -132 24.5t-88 68t-31 101.5q0 62 34 109.5t93 71.5q-47 23 -74 64t-27 95q0 56 28 99t79 67t118 24q69 0 119.5 -24t79 -67t28.5 -99q0 -54 -27 -95t-74 -64q59 -24 93 -71.5t34 -109.5q0 -58 -31.5 -101.5t-88 -68t-133.5 -24.5zM310 62q74 0 121 35.5
t47 92.5q0 58 -47 94.5t-121 36.5q-48 0 -85.5 -16.5t-59 -46t-21.5 -68.5q0 -38 21.5 -67t59 -45t85.5 -16zM310 400q64 0 104 31.5t40 82.5q0 56 -40 90.5t-104 34.5q-62 0 -102 -34.5t-40 -90.5q0 -51 40 -82.5t102 -31.5z" />
    <glyph glyph-name="nine.tf" 
d="M296 712q74 0 122 -27.5t77.5 -74.5t42 -108.5t12.5 -130.5q0 -90 -19 -161t-54 -120.5t-84.5 -75.5t-112.5 -26q-52 0 -103.5 16.5t-92.5 45.5l47 60q32 -22 69.5 -34.5t71.5 -12.5q102 0 155.5 86t46.5 260l18 -17q-24 -61 -77 -97t-125 -36q-68 0 -120 29.5
t-81.5 80.5t-29.5 118q0 66 30 116.5t83.5 79.5t123.5 29zM296 638q-44 0 -79 -19.5t-54.5 -54t-19.5 -79.5t19.5 -79.5t54.5 -54t79 -19.5q46 0 80.5 19.5t54 54t19.5 79.5t-19.5 79.5t-54 54t-80.5 19.5z" />
    <glyph glyph-name="zero.tf.ss02" 
d="M104 158l361 413l57 -39l-352 -402zM312 -12q-81 0 -143 46.5t-97 128t-35 187.5t35 187.5t97 128t142 46.5q81 0 143 -46.5t97 -128t35 -187.5t-35 -187.5t-97 -128t-142 -46.5zM312 64q55 0 98.5 37t68 101t24.5 148t-24.5 148.5t-68 101t-99.5 36.5t-99 -36.5
t-67.5 -101t-24.5 -148.5t24.5 -148t68 -101t99.5 -37z" />
    <glyph glyph-name="zero.dnom" horiz-adv-x="406" 
d="M204 -6q-50 0 -89 27.5t-61 76.5t-22 113q0 65 22 113.5t60.5 76t88.5 27.5q51 0 89 -27.5t60 -76t22 -113.5q0 -64 -22 -113t-60 -76.5t-88 -27.5zM204 60q44 0 71.5 42.5t27.5 108.5q0 67 -28 109.5t-72 42.5q-43 0 -70 -42.5t-27 -109.5q0 -66 27.5 -108.5t70.5 -42.5
z" />
    <glyph glyph-name="one.dnom" horiz-adv-x="281" 
d="M132 0v381l7 39h63v-420h-70zM42 295v65q20 0 47 18t50 42l46 -46q-36 -38 -71 -60t-72 -19z" />
    <glyph glyph-name="two.dnom" horiz-adv-x="361" 
d="M108 47l-72 8q0 18 10 38.5t28.5 41t42.5 38.5l70 51q20 15 36 35t16 40q0 27 -18.5 44.5t-51.5 17.5q-30 0 -49 -17.5t-26 -39.5l-74 14q6 29 26 53.5t51 40t71 15.5q67 0 106.5 -35.5t39.5 -91.5q0 -38 -20.5 -67t-56.5 -57l-69 -50q-14 -10 -27.5 -24t-22 -28.5
t-10.5 -26.5zM36 0v55l55 10h228v-65h-283z" />
    <glyph glyph-name="three.dnom" horiz-adv-x="354" 
d="M181 -6q-55 0 -91.5 24t-48.5 60l66 22q11 -17 26.5 -30t42.5 -13q33 0 52.5 19t19.5 48q0 20 -10.5 35t-32.5 23.5t-56 8.5h-22v51h19q49 0 89 -15t63.5 -43t23.5 -68q0 -38 -19.5 -65.5t-51.5 -42t-70 -14.5zM127 202v50h22q44 0 67.5 14.5t23.5 42.5q0 23 -17.5 39.5
t-47.5 16.5q-19 0 -36.5 -9.5t-29.5 -31.5l-64 22q10 26 29.5 44.5t46.5 28t57 9.5q39 0 69 -14.5t48 -40t18 -58.5q0 -37 -23 -62t-61.5 -38t-82.5 -13h-19z" />
    <glyph glyph-name="four.dnom" horiz-adv-x="392" 
d="M83 116l-53 30l188 274l44 -41zM30 88v58l43 5h298v-63h-341zM225 0v379l-7 41h76v-420h-69z" />
    <glyph glyph-name="five.dnom" horiz-adv-x="368" 
d="M187 -6q-27 0 -56 9t-52.5 27.5t-36.5 44.5l65 23q15 -21 35 -31t42 -10q35 0 56.5 21t21.5 54q0 34 -21 55.5t-55 21.5q-20 0 -37 -8.5t-27 -21.5l-65 14l23 228h234v-66h-225l-9 64h73l-31 -231l-42 5q9 16 27 32.5t44 28.5t58 12q54 -1 90.5 -37t36.5 -93
q0 -63 -41.5 -102.5t-107.5 -39.5z" />
    <glyph glyph-name="six.dnom" horiz-adv-x="356" 
d="M186 -6q-56 0 -90 27t-49 72.5t-15 99.5q0 51 10 93.5t31 74.5t53 49.5t74 17.5q32 0 64 -9.5t57 -27.5l-37 -53q-19 14 -41.5 20t-39.5 6q-50 0 -78.5 -44t-25.5 -136l-15 10q14 34 44 54.5t70 20.5q41 0 71.5 -18.5t48 -50t17.5 -71.5q0 -59 -41 -97t-108 -38zM187 56
q33 0 54.5 21.5t21.5 54.5q0 34 -21.5 55.5t-54.5 21.5t-54.5 -21.5t-21.5 -55.5t21.5 -55t54.5 -21z" />
    <glyph glyph-name="seven.dnom" horiz-adv-x="341" 
d="M62 0l182 364l76 1l-178 -365h-80zM29 354v66h291v-55l-70 -11h-221z" />
    <glyph glyph-name="eight.dnom" horiz-adv-x="390" 
d="M195 -6q-74 0 -115.5 32t-41.5 84q0 55 41.5 90t115.5 35q73 0 114.5 -35t41.5 -90q0 -52 -41.5 -84t-114.5 -32zM195 55q35 0 58.5 18t23.5 46q0 30 -23 49t-59 19t-59 -19t-23 -49q0 -28 23 -46t59 -18zM195 247q31 0 51 17t20 42q0 28 -20 45.5t-51 17.5t-51 -17.5
t-20 -45.5q0 -25 20 -42t51 -17zM195 203q-67 0 -104.5 31t-37.5 80q0 50 37.5 82t104.5 32q66 0 104 -32t38 -82q0 -49 -38.5 -80t-103.5 -31z" />
    <glyph glyph-name="nine.dnom" horiz-adv-x="356" 
d="M156 -6q-32 0 -63.5 9.5t-56.5 27.5l37 53q19 -13 41 -19.5t39 -6.5q51 0 79 43.5t25 136.5l15 -10q-13 -34 -43 -54.5t-71 -20.5q-40 0 -71 18.5t-48.5 50.5t-17.5 71q0 58 41 96.5t108 38.5q57 0 90.5 -27.5t48.5 -72.5t15 -100q0 -49 -10 -91.5t-31 -74.5t-52.5 -50
t-74.5 -18zM169 213q33 0 54.5 22t21.5 55t-21.5 54.5t-54.5 21.5t-54.5 -21.5t-21.5 -54.5q0 -34 22 -55.5t54 -21.5z" />
    <glyph glyph-name="zero.numr" horiz-adv-x="406" 
d="M204 273q-50 0 -89 27.5t-61 76.5t-22 113q0 65 22 113.5t60.5 76t88.5 27.5q51 0 89 -27.5t60 -76t22 -113.5q0 -64 -22 -113t-60 -76.5t-88 -27.5zM204 339q44 0 71.5 42.5t27.5 108.5q0 67 -28 109.5t-72 42.5q-43 0 -70 -42.5t-27 -109.5q0 -66 27.5 -108.5
t70.5 -42.5z" />
    <glyph glyph-name="one.numr" horiz-adv-x="281" 
d="M132 280v381l7 39h63v-420h-70zM42 575v65q20 0 47 18t50 42l46 -46q-36 -38 -71 -60t-72 -19z" />
    <glyph glyph-name="two.numr" horiz-adv-x="361" 
d="M108 327l-72 8q0 18 10 38.5t28.5 41t42.5 38.5l70 51q20 15 36 35t16 40q0 27 -18.5 44.5t-51.5 17.5q-30 0 -49 -17.5t-26 -39.5l-74 14q6 29 26 53.5t51 40t71 15.5q67 0 106.5 -35.5t39.5 -91.5q0 -38 -20.5 -67t-56.5 -57l-69 -50q-14 -10 -27.5 -24t-22 -28.5
t-10.5 -26.5zM36 280v55l55 10h228v-65h-283z" />
    <glyph glyph-name="three.numr" horiz-adv-x="354" 
d="M181 273q-55 0 -91.5 24t-48.5 60l66 22q11 -17 26.5 -30t42.5 -13q33 0 52.5 19t19.5 48q0 20 -10.5 35t-32.5 23.5t-56 8.5h-22v51h19q49 0 89 -15t63.5 -43t23.5 -68q0 -38 -19.5 -65.5t-51.5 -42t-70 -14.5zM127 481v50h22q44 0 67.5 14.5t23.5 42.5q0 23 -17.5 39.5
t-47.5 16.5q-19 0 -36.5 -9.5t-29.5 -31.5l-64 22q10 26 29.5 44.5t46.5 28t57 9.5q39 0 69 -14.5t48 -40t18 -58.5q0 -37 -23 -62t-61.5 -38t-82.5 -13h-19z" />
    <glyph glyph-name="four.numr" horiz-adv-x="392" 
d="M83 396l-53 30l188 274l44 -41zM30 368v58l43 5h298v-63h-341zM225 280v379l-7 41h76v-420h-69z" />
    <glyph glyph-name="five.numr" horiz-adv-x="368" 
d="M187 273q-27 0 -56 9t-52.5 27.5t-36.5 44.5l65 23q15 -21 35 -31t42 -10q35 0 56.5 21t21.5 54q0 34 -21 55.5t-55 21.5q-20 0 -37 -8.5t-27 -21.5l-65 14l23 228h234v-66h-225l-9 64h73l-31 -231l-42 5q9 16 27 32.5t44 28.5t58 12q54 -1 90.5 -37t36.5 -93
q0 -63 -41.5 -102.5t-107.5 -39.5z" />
    <glyph glyph-name="six.numr" horiz-adv-x="356" 
d="M186 273q-56 0 -90 27t-49 72.5t-15 99.5q0 51 10 93.5t31 74.5t53 49.5t74 17.5q32 0 64 -9.5t57 -27.5l-37 -53q-19 14 -41.5 20t-39.5 6q-50 0 -78.5 -44t-25.5 -136l-15 10q14 34 44 54.5t70 20.5q41 0 71.5 -18.5t48 -50t17.5 -71.5q0 -59 -41 -97t-108 -38z
M187 335q33 0 54.5 21.5t21.5 54.5q0 34 -21.5 55.5t-54.5 21.5t-54.5 -21.5t-21.5 -55.5t21.5 -55t54.5 -21z" />
    <glyph glyph-name="seven.numr" horiz-adv-x="341" 
d="M62 280l182 364l76 1l-178 -365h-80zM29 634v66h291v-55l-70 -11h-221z" />
    <glyph glyph-name="eight.numr" horiz-adv-x="390" 
d="M195 273q-74 0 -115.5 32t-41.5 84q0 55 41.5 90t115.5 35q73 0 114.5 -35t41.5 -90q0 -52 -41.5 -84t-114.5 -32zM195 334q35 0 58.5 18t23.5 46q0 30 -23 49t-59 19t-59 -19t-23 -49q0 -28 23 -46t59 -18zM195 526q31 0 51 17t20 42q0 28 -20 45.5t-51 17.5t-51 -17.5
t-20 -45.5q0 -25 20 -42t51 -17zM195 482q-67 0 -104.5 31t-37.5 80q0 50 37.5 82t104.5 32q66 0 104 -32t38 -82q0 -49 -38.5 -80t-103.5 -31z" />
    <glyph glyph-name="nine.numr" horiz-adv-x="356" 
d="M156 273q-32 0 -63.5 9.5t-56.5 27.5l37 53q19 -13 41 -19.5t39 -6.5q51 0 79 43.5t25 136.5l15 -10q-13 -34 -43 -54.5t-71 -20.5q-40 0 -71 18.5t-48.5 50.5t-17.5 71q0 58 41 96.5t108 38.5q57 0 90.5 -27.5t48.5 -72.5t15 -100q0 -49 -10 -91.5t-31 -74.5t-52.5 -50
t-74.5 -18zM169 492q33 0 54.5 22t21.5 55t-21.5 54.5t-54.5 21.5t-54.5 -21.5t-21.5 -54.5q0 -34 22 -55.5t54 -21.5z" />
    <glyph glyph-name="periodcentered.loclCAT" horiz-adv-x="104" 
d="M52 259q-23 0 -39.5 16.5t-16.5 38.5q0 23 16.5 39.5t39.5 16.5t39 -16.5t16 -39.5q0 -22 -16 -38.5t-39 -16.5z" />
    <glyph glyph-name="periodcentered.loclCAT.case" horiz-adv-x="0" 
d="M-55 302q-23 0 -39.5 16.5t-16.5 38.5q0 23 16.5 39.5t39.5 16.5t39 -16.5t16 -39.5q0 -22 -16 -38.5t-39 -16.5z" />
    <glyph glyph-name="uni030C.alt" horiz-adv-x="0" 
d="M22 531l49 168h85l-66 -168h-68z" />
    <glyph glyph-name="uni0328.alt" horiz-adv-x="0" 
d="M144 -212q-38 0 -67 11t-44.5 31t-15.5 49q0 32 15 61t42 54t64 44h18q-25 -22 -40 -45.5t-21.5 -46.5t-6.5 -45t13 -35t36 -13q17 0 33.5 3t28.5 8l24 -57q-17 -10 -37.5 -14.5t-41.5 -4.5z" />
    <glyph glyph-name="uni0304.narrow" horiz-adv-x="0" 
d="M21 575v73h258v-73h-258z" />
    </font>
</defs>
</svg>
