<?xml version="1.0" standalone="no"?>
<!DOCTYPE svg PUBLIC "-//W3C//DTD SVG 1.1//EN" "http://www.w3.org/Graphics/SVG/1.1/DTD/svg11.dtd" >
<svg xmlns="http://www.w3.org/2000/svg" xmlns:xlink="http://www.w3.org/1999/xlink" version="1.1">
<metadata>
Created by FontForge 20201107 at Wed Apr  9 14:49:15 2025
 By 
Copyright 2022 The Figtree Project Authors (https://github.com/erikdkennedy/figtree)
</metadata>
<defs>
<font id="Figtree-Bold" horiz-adv-x="632" >
  <font-face 
    font-family="Figtree"
    font-weight="700"
    font-stretch="normal"
    units-per-em="1000"
    panose-1="0 0 0 0 0 0 0 0 0 0"
    ascent="800"
    descent="-200"
    x-height="500"
    cap-height="700"
    bbox="-179 -220 1100 949"
    underline-thickness="50"
    underline-position="-125"
    unicode-range="U+000D-2265"
  />
<missing-glyph horiz-adv-x="708" 
d="M100 -170v960h508v-960h-508zM158 -112h392v844h-392v-844z" />
    <glyph glyph-name=".notdef" horiz-adv-x="708" 
d="M100 -170v960h508v-960h-508zM158 -112h392v844h-392v-844z" />
    <glyph glyph-name=".null" horiz-adv-x="0" 
 />
    <glyph glyph-name="nonmarkingreturn" horiz-adv-x="333" 
 />
    <glyph glyph-name="CR" unicode="&#xd;" horiz-adv-x="600" 
 />
    <glyph glyph-name="space" unicode=" " horiz-adv-x="238" 
 />
    <glyph glyph-name="exclam" unicode="!" horiz-adv-x="312" 
d="M92 228l-9 472h146l-9 -472h-128zM156 -15q-33 0 -56.5 23.5t-23.5 56.5t23.5 56.5t56.5 23.5t56.5 -23.5t23.5 -56.5t-23.5 -56.5t-56.5 -23.5z" />
    <glyph glyph-name="quotedbl" unicode="&#x22;" horiz-adv-x="412" 
d="M74 460l-14 256h125l-14 -256h-97zM241 460l-14 256h125l-14 -256h-97z" />
    <glyph glyph-name="numbersign" unicode="#" horiz-adv-x="631" 
d="M321 0l110 700h97l-110 -700h-97zM10 181l13 93h562l-13 -93h-562zM106 0l110 700h97l-110 -700h-97zM43 407l16 93h562l-16 -93h-562z" />
    <glyph glyph-name="dollar" unicode="$" horiz-adv-x="554" 
d="M284 24q-64 0 -116 20t-85.5 54t-42.5 73l122 36q11 -30 40.5 -51.5t74.5 -22.5q47 -1 76.5 20t29.5 56q0 28 -23.5 48.5t-64.5 30.5l-82 20q-46 13 -81 37t-54 59.5t-19 82.5q0 89 58.5 139t166.5 50q60 0 105.5 -17t76.5 -49.5t47 -77.5l-122 -37q-10 29 -38.5 50.5
t-72.5 21.5q-43 0 -68 -20.5t-25 -56.5q0 -29 19.5 -46.5t53.5 -25.5l83 -21q81 -20 125.5 -71.5t44.5 -114.5q0 -57 -27 -99t-78 -65t-124 -23zM231 -103v883h110v-883h-110z" />
    <glyph glyph-name="percent" unicode="%" horiz-adv-x="813" 
d="M90 0l497 700h132l-500 -700h-129zM609 -15q-47 0 -84 22t-57.5 61.5t-20.5 89.5q0 51 20.5 90t57.5 61t84 22q48 0 84.5 -22.5t57.5 -61t21 -89.5q0 -50 -21 -89.5t-57.5 -61.5t-84.5 -22zM609 73q31 0 50 24.5t19 60.5t-19 60.5t-50 24.5q-30 0 -49.5 -24.5
t-19.5 -60.5t19.5 -60.5t49.5 -24.5zM204 370q-48 0 -84.5 22t-57.5 61.5t-21 89.5q0 51 20.5 90t57.5 61t85 22t84.5 -22.5t57 -61t20.5 -89.5q0 -50 -20.5 -89.5t-57.5 -61.5t-84 -22zM203 458q31 0 50.5 24.5t19.5 60.5t-19.5 60t-50.5 24q-30 0 -49 -24t-19 -60
t19 -60.5t49 -24.5z" />
    <glyph glyph-name="ampersand" unicode="&#x26;" horiz-adv-x="647" 
d="M254 -13q-62 0 -110 24t-75 66t-27 97q0 38 14 70t39 59.5t56 48.5l132 91q16 11 34.5 25t33 33.5t14.5 44.5q0 29 -21 45.5t-53 16.5q-30 0 -50.5 -17t-20.5 -44q0 -26 16 -45.5t37 -45.5l133 -160l245 -296h-154l-186 222l-140 170q-27 35 -44.5 61.5t-25.5 49t-8 45.5
q0 48 25.5 85t69 58.5t97.5 21.5q59 0 105 -21.5t72.5 -59.5t26.5 -89q0 -41 -21 -75.5t-61.5 -69.5t-98.5 -75l-71 -49q-16 -11 -29.5 -25t-21.5 -31.5t-8 -40.5q0 -34 23.5 -56t60.5 -22q42 0 83 13t74.5 39t52.5 64t19 87h123q0 -92 -46 -163.5t-127 -111.5t-187 -40z
" />
    <glyph glyph-name="quotesingle" unicode="'" horiz-adv-x="245" 
d="M74 460l-14 256h125l-14 -256h-97z" />
    <glyph glyph-name="parenleft" unicode="(" horiz-adv-x="382" 
d="M214 -100q-46 61 -84 132.5t-60 151.5t-22 166q0 87 22 166.5t60 151t84 132.5h130q-46 -64 -84 -137t-60 -151.5t-22 -161.5q0 -82 22 -161t60 -151.5t84 -137.5h-130z" />
    <glyph glyph-name="parenright" unicode=")" horiz-adv-x="382" 
d="M168 -100h-130q47 65 84.5 137.5t59.5 151.5t22 161q0 83 -22 161.5t-59.5 151.5t-84.5 137h130q47 -61 84.5 -132.5t59.5 -151t22 -166.5q0 -86 -22 -166t-59.5 -151.5t-84.5 -132.5z" />
    <glyph glyph-name="asterisk" unicode="*" horiz-adv-x="488" 
d="M316 353l-98 159l55 40l121 -142zM174 351l-78 57l121 142l55 -40zM233 498l-181 44l30 92l172 -72zM210 530l-14 186h96l-15 -186h-67zM254 498l-20 64l172 71l30 -91z" />
    <glyph glyph-name="plus" unicode="+" 
d="M263 67v462h107v-462h-107zM85 244v107h462v-107h-462z" />
    <glyph glyph-name="comma" unicode="," horiz-adv-x="257" 
d="M29 -114l61 236h137l-98 -236h-100z" />
    <glyph glyph-name="hyphen" unicode="-" horiz-adv-x="408" 
d="M54 241v113h300v-113h-300z" />
    <glyph glyph-name="period" unicode="." horiz-adv-x="248" 
d="M124 -15q-33 0 -56.5 24t-23.5 57q0 32 23.5 56t56.5 24t56.5 -24t23.5 -56q0 -33 -23.5 -57t-56.5 -24z" />
    <glyph glyph-name="slash" unicode="/" horiz-adv-x="432" 
d="M15 -84l276 831h126l-274 -831h-128z" />
    <glyph glyph-name="zero" unicode="0" horiz-adv-x="648" 
d="M324 -12q-85 0 -150 46.5t-102 128t-37 187.5t37 187.5t101.5 128t149.5 46.5t150.5 -46.5t102.5 -128t37 -187.5t-37 -187.5t-102 -128t-150 -46.5zM324 112q45 0 80.5 30.5t55.5 84t20 123.5t-20 124t-55.5 84.5t-81.5 30.5q-45 0 -80 -30.5t-54.5 -84.5t-19.5 -124
t19.5 -123.5t55 -84t80.5 -30.5z" />
    <glyph glyph-name="one" unicode="1" horiz-adv-x="422" 
d="M195 0v528q-35 -24 -72 -37.5t-76 -11.5v124q25 -2 54 12.5t57.5 38t51.5 46.5h116v-700h-131z" />
    <glyph glyph-name="two" unicode="2" horiz-adv-x="579" 
d="M51 0v101q0 29 18 64t50 70t75 65l106 76q22 15 41.5 34t32 41.5t12.5 43.5q0 26 -12.5 47t-36.5 33t-59 12q-30 0 -53.5 -12t-38.5 -32t-21 -43l-141 24q10 50 43 93t86.5 69.5t121.5 26.5q78 0 134 -28t86.5 -76.5t30.5 -112.5q0 -65 -35.5 -115.5t-97.5 -94.5l-95 -69
q-29 -20 -50 -44t-32 -53h319v-120h-484z" />
    <glyph glyph-name="three" unicode="3" horiz-adv-x="556" 
d="M281 -12q-62 0 -112 18.5t-83.5 53t-46.5 81.5l126 37q7 -12 19 -29.5t33 -29.5t55 -12q50 0 79.5 27.5t29.5 71.5q0 30 -15 53t-48.5 35.5t-87.5 12.5h-42v112h42q70 0 104 24t34 66q0 24 -12 43t-34 30t-51 11q-19 0 -39 -6.5t-36.5 -21t-26.5 -41.5l-124 37
q14 49 48.5 82.5t82.5 51t99 17.5q65 0 117 -24.5t82 -67.5t30 -99q0 -55 -30.5 -93.5t-81.5 -61.5q58 -27 92 -71.5t34 -104.5q0 -63 -33 -108.5t-87 -69.5t-117 -24z" />
    <glyph glyph-name="four" unicode="4" horiz-adv-x="633" 
d="M352 0v138h-326v109l310 453h145v-445h122v-117h-122v-138h-129zM167 255h185v271z" />
    <glyph glyph-name="five" unicode="5" horiz-adv-x="581" 
d="M293 -12q-48 0 -98.5 16t-91 48t-59.5 79l125 37q22 -32 52.5 -47t63.5 -15q52 0 84.5 31.5t32.5 84.5q0 49 -31.5 82t-83.5 33q-31 0 -57 -14t-40 -33l-123 27l42 383h396v-124h-279l-20 -168q27 15 60 24.5t71 8.5q57 0 104 -27.5t74.5 -75t27.5 -110.5q0 -71 -32 -125
t-88 -84.5t-130 -30.5z" />
    <glyph glyph-name="six" unicode="6" horiz-adv-x="580" 
d="M299 -12q-71 0 -120.5 25.5t-81 70.5t-46 104.5t-14.5 128.5q0 80 17 151.5t51.5 126.5t88.5 86t130 31q55 0 107.5 -16t94.5 -46l-68 -100q-31 22 -66.5 32t-65.5 10q-77 0 -121 -68t-42 -215l-27 19q23 55 71 88t114 33q67 0 118.5 -31t81 -84.5t29.5 -119.5
q0 -65 -31 -116.5t-87.5 -80.5t-132.5 -29zM299 104q33 0 59 15t41 41t15 60t-15 60.5t-41 42t-59 15.5t-59.5 -15.5t-41.5 -42t-15 -60.5t15 -60t41.5 -41t59.5 -15z" />
    <glyph glyph-name="seven" unicode="7" horiz-adv-x="556" 
d="M93 0l281 575h-341v125h493v-101l-281 -599h-152z" />
    <glyph glyph-name="eight" unicode="8" horiz-adv-x="612" 
d="M305 -12q-84 0 -143 24.5t-89.5 68t-30.5 101.5q0 63 31.5 110.5t90.5 73.5q-48 23 -73.5 63.5t-25.5 92.5q0 56 28.5 99t82.5 67t129 24q76 0 130 -24t83 -67t29 -99q0 -52 -26 -92.5t-74 -63.5q59 -26 91 -73.5t32 -110.5q0 -58 -31 -101.5t-90 -68t-144 -24.5z
M305 102q55 0 90 27.5t35 70.5q0 47 -35 76t-90 29q-36 0 -63.5 -13t-43.5 -37t-16 -55q0 -29 16 -51t43.5 -34.5t63.5 -12.5zM305 414q48 0 78.5 26t30.5 66q0 43 -30.5 69.5t-78.5 26.5q-47 0 -77 -26.5t-30 -69.5q0 -40 30 -66t77 -26z" />
    <glyph glyph-name="nine" unicode="9" horiz-adv-x="580" 
d="M281 711q71 0 120.5 -25.5t81 -70.5t46 -104.5t14.5 -127.5q0 -81 -17 -152.5t-51.5 -126t-88.5 -86t-130 -31.5q-55 0 -107.5 16.5t-94.5 45.5l67 100q32 -21 67.5 -31.5t64.5 -10.5q78 0 122.5 68.5t40.5 214.5l28 -18q-23 -55 -71 -88.5t-115 -33.5q-66 0 -118 31.5
t-81 84.5t-29 120q0 66 31 116.5t87.5 79.5t132.5 29zM281 596q-33 0 -59 -15t-41 -41t-15 -60t15 -61t41 -42t59 -15t59 15t41.5 42t15.5 61t-15.5 60t-41.5 41t-59 15z" />
    <glyph glyph-name="colon" unicode=":" horiz-adv-x="301" 
d="M150 340q-33 0 -56.5 24t-23.5 57q0 32 23.5 56t56.5 24t56.5 -24t23.5 -56q0 -33 -23.5 -57t-56.5 -24zM151 -1q-33 0 -56.5 23.5t-23.5 56.5t23.5 56.5t56.5 23.5t56.5 -23.5t23.5 -56.5t-23.5 -56.5t-56.5 -23.5z" />
    <glyph glyph-name="semicolon" unicode=";" horiz-adv-x="305" 
d="M149 338q-33 0 -56.5 23.5t-23.5 56.5t23.5 56.5t56.5 23.5t56.5 -23.5t23.5 -56.5t-23.5 -56.5t-56.5 -23.5zM35 -114l61 236h137l-98 -236h-100z" />
    <glyph glyph-name="less" unicode="&#x3c;" 
d="M500 518v-119l-238 -102l238 -98v-120l-373 163v111z" />
    <glyph glyph-name="equal" unicode="=" 
d="M116 344v107h400v-107h-400zM116 144v107h400v-107h-400z" />
    <glyph glyph-name="greater" unicode="&#x3e;" 
d="M132 79v119l238 101l-238 99v119l373 -163v-110z" />
    <glyph glyph-name="question" unicode="?" horiz-adv-x="513" 
d="M163 201l-5 176l74 5q52 3 85.5 30t33.5 79q0 44 -31 73t-81 29q-35 0 -60.5 -17.5t-35.5 -43.5l-120 34q20 66 76.5 106t139.5 40q70 0 124 -28.5t84.5 -78t30.5 -114.5q0 -53 -23 -95t-65.5 -68t-98.5 -33l-2 -94h-126zM226 -15q-33 0 -56.5 23.5t-23.5 57.5
q0 33 23.5 56.5t56.5 23.5t56.5 -23.5t23.5 -56.5q0 -34 -23.5 -57.5t-56.5 -23.5z" />
    <glyph glyph-name="at" unicode="@" horiz-adv-x="992" 
d="M516 -210q-106 0 -194 34t-152 96t-99.5 146.5t-35.5 185.5q0 102 35 186.5t99.5 146.5t152.5 96t194 34q96 0 177 -34t140 -96t91.5 -146.5t32.5 -186.5q0 -78 -26.5 -138t-72.5 -94.5t-106 -34.5q-51 0 -87.5 26.5t-46.5 80.5q-28 -36 -69.5 -57t-92.5 -21
q-61 0 -108 30.5t-73.5 84.5t-26.5 123q0 70 26.5 123t73.5 83.5t108 30.5q47 0 86 -17.5t66 -49.5v57h110v-361q0 -25 12 -35.5t31 -10.5q29 0 51 23t34.5 63.5t12.5 93.5q0 81 -25.5 148t-71 116.5t-108.5 76.5t-138 27q-85 0 -155 -27t-121 -76.5t-79 -116.5t-28 -148
t28 -148t79 -116t121 -76t155 -27q35 0 75 10.5t67 27.5l54 -77q-42 -25 -97 -40.5t-99 -15.5zM497 124q46 0 77.5 30.5t37.5 79.5l-1 40q-6 47 -39 76.5t-81 29.5q-35 0 -61.5 -16t-42 -44.5t-15.5 -66.5q0 -37 16.5 -66.5t44 -46t64.5 -16.5z" />
    <glyph glyph-name="A" unicode="A" horiz-adv-x="714" 
d="M8 0l276 700h146l276 -700h-145l-60 154h-288l-60 -154h-145zM258 275h198l-99 254z" />
    <glyph glyph-name="B" unicode="B" horiz-adv-x="612" 
d="M76 0v700h237q72 0 126 -22t84 -66.5t30 -110.5q0 -41 -20.5 -75.5t-57.5 -59.5q49 -25 75.5 -66.5t26.5 -99.5q0 -64 -29 -109t-81 -68t-122 -23h-269zM210 121h122q49 0 77 24.5t28 65.5q0 43 -31 67.5t-85 24.5h-111v-182zM210 415h106q45 0 71 23t26 65t-29 65
t-79 23h-95v-176z" />
    <glyph glyph-name="C" unicode="C" horiz-adv-x="725" 
d="M385 -12q-102 0 -181 46.5t-124 128t-45 187.5t45 187.5t123.5 128t180.5 46.5q72 0 134 -25.5t108.5 -71t71.5 -104.5l-127 -47q-17 37 -45 64.5t-64 43t-78 15.5q-61 0 -108.5 -30.5t-74 -83.5t-26.5 -123t27 -123.5t75 -84t110 -30.5q43 0 78.5 16.5t63 45.5t44.5 67
l127 -46q-25 -61 -71.5 -108t-108.5 -73t-135 -26z" />
    <glyph glyph-name="D" unicode="D" horiz-adv-x="700" 
d="M76 0v700h224q107 0 189.5 -45t129 -123.5t46.5 -181.5q0 -102 -46.5 -181t-129 -124t-189.5 -45h-224zM213 128h87q48 0 89 17t71.5 47t47.5 70.5t17 87.5t-17 87.5t-47.5 70.5t-71.5 47t-89 17h-87v-444z" />
    <glyph glyph-name="E" unicode="E" horiz-adv-x="589" 
d="M76 0v700h443v-125h-306v-159h264v-122h-264v-169h310v-125h-447z" />
    <glyph glyph-name="F" unicode="F" horiz-adv-x="554" 
d="M76 0v700h449v-125h-312v-168h260v-125h-260v-282h-137z" />
    <glyph glyph-name="G" unicode="G" horiz-adv-x="743" 
d="M401 -12q-107 0 -189.5 46.5t-129.5 128t-47 187.5t47 187.5t129.5 128t189.5 46.5q64 0 118 -19t95.5 -52.5t69.5 -76.5l-112 -70q-17 27 -44.5 48t-60.5 33t-66 12q-66 0 -117 -30.5t-80 -83.5t-29 -123q0 -69 28.5 -123t80.5 -84.5t120 -30.5q51 0 91 19.5t64 54.5
t27 82h-162v107h294v-85q-2 -96 -43 -163.5t-112 -103t-162 -35.5z" />
    <glyph glyph-name="H" unicode="H" horiz-adv-x="750" 
d="M76 0v701h137v-280h324v279h137v-700h-137v295h-324v-295h-137z" />
    <glyph glyph-name="I" unicode="I" horiz-adv-x="289" 
d="M76 0v700h137v-700h-137z" />
    <glyph glyph-name="J" unicode="J" horiz-adv-x="552" 
d="M231 -14q-51 0 -90.5 16.5t-67 42.5t-43.5 56t-22 58l116 44q16 -44 42.5 -68t66.5 -24q30 0 57 14t43.5 45t16.5 80v450h136v-490q0 -52 -19 -93.5t-53.5 -70.5t-81 -44.5t-101.5 -15.5z" />
    <glyph glyph-name="K" unicode="K" horiz-adv-x="666" 
d="M76 0v700h135v-276l259 276h177l-296 -316l307 -384h-169l-227 288l-51 -54v-234h-135z" />
    <glyph glyph-name="L" unicode="L" horiz-adv-x="537" 
d="M76 0v700h137v-575h308v-125h-445z" />
    <glyph glyph-name="M" unicode="M" horiz-adv-x="857" 
d="M76 0v700h149l204 -302l204 302h148v-700h-136v486l-216 -318l-216 317v-485h-137z" />
    <glyph glyph-name="N" unicode="N" horiz-adv-x="773" 
d="M76 0v700h143l342 -470v470h136v-700h-136l-348 479v-479h-137z" />
    <glyph glyph-name="O" unicode="O" horiz-adv-x="787" 
d="M396 -12q-106 0 -187.5 46.5t-127.5 128t-46 186.5q0 107 46 188.5t126.5 127.5t185.5 46q106 0 186.5 -46.5t126.5 -128t46 -187.5q0 -105 -45.5 -186.5t-126 -128t-184.5 -46.5zM396 113q64 0 112.5 30.5t76 83.5t27.5 122q0 70 -28 123t-77 83.5t-114 30.5
q-63 0 -112.5 -30.5t-77.5 -83.5t-28 -123q0 -69 28 -122t78 -83.5t115 -30.5z" />
    <glyph glyph-name="P" unicode="P" horiz-adv-x="603" 
d="M76 0v700h260q74 0 131 -29.5t89 -82t32 -121.5q0 -68 -31 -121t-85 -83.5t-125 -30.5h-134v-232h-137zM213 358h131q46 0 75.5 30.5t29.5 78.5t-32.5 78t-83.5 30h-120v-217z" />
    <glyph glyph-name="Q" unicode="Q" horiz-adv-x="789" 
d="M658 -42l-77 79q-39 -24 -86 -36.5t-99 -12.5q-106 0 -187.5 46.5t-127.5 128t-46 186.5q0 80 26.5 146.5t74.5 115t113 75t144 26.5q106 0 186.5 -46.5t126.5 -128.5t46 -188q0 -69 -20.5 -129t-57.5 -106l70 -71zM396 113q25 0 46 6.5t41 17.5l-83 83l88 83l87 -89
q18 28 27.5 62t9.5 73q0 70 -28 123.5t-77 84t-114 30.5q-63 0 -112.5 -30.5t-77.5 -84t-28 -123.5q0 -69 28 -122t78 -83.5t115 -30.5z" />
    <glyph glyph-name="R" unicode="R" horiz-adv-x="645" 
d="M76 0v700h260q74 0 131 -29t89 -79.5t32 -117.5q0 -69 -37 -121.5t-97 -79.5l162 -273h-155l-143 248h-12.5h-13.5h-79v-248h-137zM213 373h124q31 0 55.5 13t39 36t14.5 52q0 45 -32.5 73t-83.5 28h-117v-202z" />
    <glyph glyph-name="S" unicode="S" horiz-adv-x="607" 
d="M311 -12q-53 0 -99 13t-82 36.5t-59.5 52.5t-30.5 61l134 40q13 -34 46 -58.5t83 -25.5q53 -1 86.5 23t33.5 62q0 33 -26.5 55.5t-72.5 34.5l-91 24q-51 13 -90 39.5t-61 65.5t-22 91q0 99 65.5 154.5t185.5 55.5q67 0 117.5 -19.5t84.5 -55.5t52 -85l-133 -41
q-12 34 -44 58t-81 24q-50 0 -78.5 -23t-28.5 -65q0 -33 22.5 -52t61.5 -29l92 -23q90 -22 140 -79t50 -127q0 -62 -30 -108.5t-87 -72.5t-138 -26z" />
    <glyph glyph-name="T" unicode="T" horiz-adv-x="584" 
d="M224 0v575h-210v125h556v-125h-209v-575h-137z" />
    <glyph glyph-name="U" unicode="U" horiz-adv-x="704" 
d="M350 -14q-87 0 -151 34t-98.5 95.5t-34.5 145.5v439h137v-439q0 -45 18.5 -78.5t52 -51.5t78.5 -18t78.5 18t52 51.5t18.5 78.5v439h137v-439q0 -84 -35.5 -145.5t-100 -95.5t-152.5 -34z" />
    <glyph glyph-name="V" unicode="V" horiz-adv-x="722" 
d="M287 0l-279 700h147l207 -538l205 538h147l-278 -700h-149z" />
    <glyph glyph-name="W" unicode="W" horiz-adv-x="985" 
d="M215 0l-207 700h139l142 -490l135 490h136l136 -483l142 483h139l-209 -700h-144l-132 486l-134 -486h-143z" />
    <glyph glyph-name="X" unicode="X" horiz-adv-x="679" 
d="M10 0l253 358l-248 342h163l162 -232l161 232h163l-248 -341l253 -359h-165l-164 246l-165 -246h-165z" />
    <glyph glyph-name="Y" unicode="Y" horiz-adv-x="647" 
d="M255 0v295l-248 405h156l160 -268l161 268h156l-248 -404v-296h-137z" />
    <glyph glyph-name="Z" unicode="Z" 
d="M38 0v128l379 444h-376v128h553v-128l-379 -444h376v-128h-553z" />
    <glyph glyph-name="bracketleft" unicode="[" horiz-adv-x="344" 
d="M76 -100v900h212v-119h-96v-662h96v-119h-212z" />
    <glyph glyph-name="backslash" unicode="\" horiz-adv-x="432" 
d="M417 -84h-128l-274 831h126z" />
    <glyph glyph-name="bracketright" unicode="]" horiz-adv-x="344" 
d="M268 -100h-212v119h96v662h-96v119h212v-900z" />
    <glyph glyph-name="asciicircum" unicode="^" horiz-adv-x="581" 
d="M391 373l-162 327h121l157 -327h-116zM74 373l155 327h120l-158 -327h-117z" />
    <glyph glyph-name="underscore" unicode="_" horiz-adv-x="434" 
d="M17 -113v113h400v-113h-400z" />
    <glyph glyph-name="grave" unicode="`" horiz-adv-x="263" 
d="M131 562l-131 139h148l116 -139h-133z" />
    <glyph glyph-name="a" unicode="a" horiz-adv-x="533" 
d="M219 -12q-90 0 -139.5 40t-49.5 113q0 80 53.5 120.5t150.5 40.5h118q-7 46 -29 70.5t-63 24.5q-32 0 -58 -14t-44 -43l-116 40q14 32 41 62.5t70.5 50t106.5 19.5q76 0 126.5 -29t75 -81.5t23.5 -124.5l-3 -277h-123l-2 58q-19 -34 -53.5 -52t-84.5 -18zM241 98
q32 0 58 15t41 39t15 50v2h-75q-65 0 -90 -15.5t-25 -43.5q0 -22 20 -34.5t56 -12.5z" />
    <glyph glyph-name="b" unicode="b" horiz-adv-x="596" 
d="M340 -12q-51 0 -89 21.5t-64 61.5l-5 -71h-125v700h132v-268q25 39 63 59.5t88 20.5q69 0 119.5 -32t78.5 -90.5t28 -139.5q0 -80 -28 -139t-78.5 -91t-119.5 -32zM306 109q36 0 63.5 18t43.5 50t16 73t-15.5 73t-43 49.5t-63.5 17.5q-34 0 -61 -18t-42 -49.5t-15 -72.5
t15 -73t41.5 -50t60.5 -18z" />
    <glyph glyph-name="c" unicode="c" horiz-adv-x="546" 
d="M298 -12q-78 0 -139 33.5t-95 93t-34 135.5q0 77 34 136t94 92.5t138 33.5q75 0 137 -37t90 -107l-124 -44q-14 29 -43.5 46.5t-65.5 17.5q-37 0 -65 -17.5t-44 -48.5t-16 -72t16 -71.5t45 -48.5t66 -18q36 0 65.5 19t43.5 50l125 -44q-29 -71 -90.5 -110t-137.5 -39z
" />
    <glyph glyph-name="d" unicode="d" horiz-adv-x="595" 
d="M256 -12q-69 0 -119.5 32t-78.5 91t-28 139q0 81 28 139.5t78.5 90.5t119.5 32q49 0 87.5 -20.5t62.5 -58.5v267h132v-700h-125l-4 70q-25 -39 -64 -60.5t-89 -21.5zM290 109q33 0 58.5 16.5t40.5 46.5t17 68v20q-2 38 -17 67.5t-41 46t-59 16.5q-36 0 -63.5 -17.5
t-43 -49.5t-15.5 -73t16 -73t43.5 -50t63.5 -18z" />
    <glyph glyph-name="e" unicode="e" horiz-adv-x="554" 
d="M283 -12q-74 0 -131 33.5t-89.5 92.5t-32.5 136t33.5 136t92 92.5t134.5 33.5q66 0 121.5 -34.5t89 -101t33.5 -161.5h-366q5 -50 43 -79.5t86 -29.5q41 0 67 17.5t40 45.5l118 -46q-21 -42 -54.5 -72.5t-79.5 -46.5t-105 -16zM175 313h216q-3 31 -20 50t-40 28t-45 9
q-21 0 -45.5 -8.5t-43 -27.5t-22.5 -51z" />
    <glyph glyph-name="f" unicode="f" horiz-adv-x="393" 
d="M107 0v394h-83v106h83v50q0 80 41 124.5t125 44.5q29 0 61.5 -10t59.5 -24l-49 -95q-16 8 -29 12t-24 4q-27 0 -40 -18.5t-13 -59.5v-28h123v-106h-123v-394h-132z" />
    <glyph glyph-name="g" unicode="g" horiz-adv-x="601" 
d="M282 -213q-57 0 -101 8t-74 21t-49 26l52 106q14 -8 37 -18.5t55 -18t74 -7.5q40 0 70.5 15.5t48 48t17.5 82.5v48q-25 -39 -65 -61.5t-91 -22.5q-69 0 -119.5 30t-78.5 84t-28 128q0 78 28 135.5t78.5 89t119.5 31.5q51 0 91 -23.5t65 -66.5v78h132v-446
q0 -84 -32 -144.5t-90.5 -91.5t-139.5 -31zM294 125q34 0 59.5 17.5t39.5 48t14 69.5q0 40 -14.5 70t-40 47t-59.5 17q-35 0 -62 -17t-42 -47t-16 -70q1 -39 16 -69.5t42.5 -48t62.5 -17.5z" />
    <glyph glyph-name="h" unicode="h" horiz-adv-x="570" 
d="M58 0v700h132v-264q25 37 62 56.5t83 19.5q60 0 101.5 -24t63.5 -74.5t22 -130.5v-283h-132v256q0 51 -12 79t-33 40.5t-49 12.5q-51 1 -78.5 -31t-27.5 -95v-262h-132z" />
    <glyph glyph-name="i" unicode="i" horiz-adv-x="262" 
d="M65 0v500h132v-500h-132zM131 581q-30 0 -53 22.5t-23 53.5t23 53.5t53 22.5q31 0 53.5 -22.5t22.5 -53.5t-22.5 -53.5t-53.5 -22.5z" />
    <glyph glyph-name="j" unicode="j" horiz-adv-x="291" 
d="M158 578q-32 0 -55 23t-23 55t23 55t55 23t55 -23t23 -55t-23 -55t-55 -23zM47 -215q-57 0 -109 31l53 109q16 -8 29.5 -12.5t23.5 -4.5q48 0 48 63v529h132v-538q0 -85 -46 -131t-131 -46z" />
    <glyph glyph-name="k" unicode="k" horiz-adv-x="538" 
d="M57 0v700h132v-386l171 186h157l-189 -211l204 -289h-155l-133 194l-55 -60v-134h-132z" />
    <glyph glyph-name="l" unicode="l" horiz-adv-x="246" 
d="M57 0v700h132v-700h-132z" />
    <glyph glyph-name="m" unicode="m" horiz-adv-x="872" 
d="M57 0v500h124l6 -65q23 38 59 57.5t80 19.5q61 0 102.5 -26t60.5 -80q22 51 62 78.5t93 27.5q88 0 134 -55.5t46 -170.5v-286h-132v256q0 51 -11 79t-30 40.5t-45 12.5q-48 1 -74 -31t-26 -95v-262h-132v256q0 51 -10.5 79t-30 40.5t-45.5 12.5q-48 1 -73.5 -31
t-25.5 -95v-262h-132z" />
    <glyph glyph-name="n" unicode="n" horiz-adv-x="568" 
d="M57 0v500h124l6 -68q24 39 61.5 59.5t85.5 20.5q59 0 101 -24t64 -74.5t21 -130.5v-283h-132v256q0 51 -11.5 79t-32.5 40.5t-49 12.5q-51 1 -78.5 -31t-27.5 -95v-262h-132z" />
    <glyph glyph-name="o" unicode="o" horiz-adv-x="581" 
d="M292 -12q-76 0 -135.5 33.5t-93 92.5t-33.5 136t33 136t92 92.5t135 33.5q77 0 136 -33.5t92 -92.5t33 -136t-33 -136t-91.5 -92.5t-134.5 -33.5zM292 110q37 0 65 18t43.5 49.5t15.5 72.5t-16 72.5t-44.5 49.5t-65.5 18q-36 0 -64.5 -18t-44.5 -49.5t-16 -72.5t16 -72.5
t45 -49.5t66 -18z" />
    <glyph glyph-name="p" unicode="p" horiz-adv-x="601" 
d="M62 -200v700h124l6 -71q25 40 63.5 61.5t89.5 21.5q69 0 119.5 -32t78.5 -90.5t28 -139.5q0 -80 -28 -139t-78.5 -91t-119.5 -32q-50 0 -88 21t-63 59v-268h-132zM311 109q36 0 63.5 18t43.5 50t16 73t-15.5 73t-43 49.5t-63.5 17.5q-34 0 -61 -18t-42 -49.5t-15 -72.5
t15 -73t41.5 -50t60.5 -18z" />
    <glyph glyph-name="q" unicode="q" horiz-adv-x="592" 
d="M407 -200v268q-25 -38 -63 -59t-88 -21q-69 0 -119.5 32t-78.5 91t-28 139q0 81 28 139.5t78.5 90.5t119.5 32q51 0 90 -22t63 -61l5 71h125v-700h-132zM290 109q34 0 60.5 18t41.5 50t15 73t-15 73t-41.5 49.5t-61.5 17.5q-36 0 -63 -17.5t-43 -49.5t-16 -73t16 -73
t43.5 -50t63.5 -18z" />
    <glyph glyph-name="r" unicode="r" horiz-adv-x="379" 
d="M57 0v500h132v-92q31 47 78.5 70.5t98.5 23.5v-128q-46 0 -86.5 -11t-65.5 -36t-25 -64v-263h-132z" />
    <glyph glyph-name="s" unicode="s" horiz-adv-x="466" 
d="M244 -12q-48 0 -90 14.5t-74 42t-50 67.5l113 52q15 -24 41 -41.5t60 -17.5q33 0 51 9.5t18 27.5t-14.5 26.5t-39.5 14.5l-46 12q-72 19 -113.5 60.5t-41.5 95.5q0 77 49.5 119t140.5 42q47 0 87.5 -14t69.5 -39t40 -58l-109 -50q-7 20 -34 32.5t-54 12.5t-41.5 -11.5
t-14.5 -31.5q0 -13 14 -21.5t40 -14.5l65 -16q49 -12 78.5 -38.5t43 -59t13.5 -63.5q0 -45 -26.5 -79.5t-72 -53.5t-103.5 -19z" />
    <glyph glyph-name="t" unicode="t" horiz-adv-x="402" 
d="M263 -12q-83 0 -125.5 41t-42.5 117v242h-81v112h81v156h132v-156h125v-112h-125v-213q0 -32 14 -48.5t41 -16.5q10 0 22 4.5t25 13.5l46 -99q-24 -18 -53.5 -29.5t-58.5 -11.5z" />
    <glyph glyph-name="u" unicode="u" horiz-adv-x="568" 
d="M235 -12q-60 0 -101.5 24t-63.5 74.5t-22 130.5v283h132v-256q0 -50 11.5 -78.5t33 -41t48.5 -12.5q52 -1 79 31.5t27 94.5v262h132v-500h-124l-5 68q-25 -38 -62.5 -59t-84.5 -21z" />
    <glyph glyph-name="v" unicode="v" horiz-adv-x="556" 
d="M212 0l-205 500h136l135 -349l135 349h136l-205 -500h-132z" />
    <glyph glyph-name="w" unicode="w" horiz-adv-x="835" 
d="M180 0l-170 500h134l104 -322l105 322h130l103 -317l105 317h134l-170 -500h-130l-107 338l-108 -338h-130z" />
    <glyph glyph-name="x" unicode="x" horiz-adv-x="536" 
d="M10 0l186 259l-173 241h156l90 -134l89 134h156l-172 -242l184 -258h-157l-100 151l-101 -151h-158z" />
    <glyph glyph-name="y" unicode="y" horiz-adv-x="576" 
d="M157 -212q-27 0 -59.5 10.5t-57.5 24.5l49 107q17 -9 31.5 -14.5t25.5 -5.5q21 0 37 11.5t26 33.5l21 51l-226 494h145l142 -345l136 345h145l-227 -543q-21 -50 -44 -88.5t-56.5 -59.5t-87.5 -21z" />
    <glyph glyph-name="z" unicode="z" horiz-adv-x="477" 
d="M32 0v96l247 295h-247v109h412v-95l-247 -297h248v-108h-413z" />
    <glyph glyph-name="braceleft" unicode="{" horiz-adv-x="394" 
d="M54 339v60q38 0 58 9.5t28 34t8 69.5q0 86 8.5 142t30 88t58.5 45t95 13v-106q-31 0 -47.5 -16t-22.5 -54.5t-6 -110.5q0 -69 -17.5 -107t-63 -52.5t-129.5 -14.5zM340 -100q-58 0 -95 13t-58.5 45t-30 88t-8.5 142q0 45 -8 69.5t-28 34t-58 9.5v60q84 0 129.5 -14.5
t63 -52t17.5 -107.5q0 -71 6.5 -110t23 -54.5t46.5 -16.5v-106z" />
    <glyph glyph-name="bar" unicode="|" horiz-adv-x="256" 
d="M76 -220v1010h104v-1010h-104z" />
    <glyph glyph-name="braceright" unicode="}" horiz-adv-x="394" 
d="M340 339q-84 0 -129.5 14.5t-63 52.5t-17.5 107q0 72 -6 110.5t-22.5 54.5t-47.5 16v106q58 0 95 -13t58.5 -45t30 -88t8.5 -142q0 -45 8 -69.5t28 -34t58 -9.5v-60zM54 -100v106q31 1 47.5 16.5t22.5 54.5t6 110q0 70 17 107.5t63.5 52t129.5 14.5v-60q-38 0 -58 -9.5
t-28 -34t-8 -69.5q0 -86 -8.5 -142t-30 -88t-58.5 -45t-95 -13z" />
    <glyph glyph-name="asciitilde" unicode="~" horiz-adv-x="667" 
d="M446 182q-37 0 -66 12t-49.5 31t-36.5 41q-17 23 -32.5 40t-38.5 17q-29 0 -43.5 -19t-19.5 -51h-106q1 57 23 102t59.5 70.5t83.5 25.5q54 0 94 -19t65 -66q11 -19 28.5 -37.5t38.5 -18.5q26 0 41.5 18t19.5 52h106q-2 -57 -23.5 -102t-58.5 -70.5t-85 -25.5z" />
    <glyph glyph-name="uni00A0" unicode="&#xa0;" horiz-adv-x="238" 
 />
    <glyph glyph-name="exclamdown" unicode="&#xa1;" horiz-adv-x="300" 
d="M220 269l9 -472h-146l9 472h128zM156 512q33 0 56.5 -23.5t23.5 -56.5t-23.5 -56.5t-56.5 -23.5t-56.5 23.5t-23.5 56.5t23.5 56.5t56.5 23.5z" />
    <glyph glyph-name="cent" unicode="&#xa2;" horiz-adv-x="541" 
d="M253 0v700h72v-700h-72zM298 98q-78 0 -139 33.5t-95 93t-34 135.5q0 77 34 136t94 92.5t138 33.5q75 0 137 -37t90 -107l-124 -44q-14 29 -43.5 46.5t-65.5 17.5q-37 0 -65 -17.5t-44 -48.5t-16 -72t16 -71.5t45 -48.5t66 -18q36 0 65.5 19t43.5 50l125 -44
q-29 -71 -90.5 -110t-137.5 -39z" />
    <glyph glyph-name="sterling" unicode="&#xa3;" horiz-adv-x="595" 
d="M44 0v125h20q21 0 36 18t15 43v94h-71v107h71v106q0 72 28 120.5t78.5 73.5t117.5 25q64 0 113 -23.5t77 -70.5t28 -118l-133 11q0 41 -24.5 64t-61.5 23q-40 0 -65 -28t-25 -77v-106h205v-107h-205v-82q0 -40 -23 -73h332v-125h-513z" />
    <glyph glyph-name="currency" unicode="&#xa4;" horiz-adv-x="598" 
d="M301 154q-58 0 -103.5 26t-71.5 70t-26 100q0 55 26 99t71.5 69.5t102.5 25.5q58 0 103.5 -25.5t71.5 -69.5t26 -99q0 -56 -26 -100t-71 -70t-103 -26zM142 119l-73 74l114 116l77 -73zM301 266q36 0 58 23t22 61q0 37 -22.5 59.5t-58.5 22.5q-35 0 -57.5 -22.5
t-22.5 -59.5q0 -38 22.5 -61t58.5 -23zM191 387l-123 120l74 74l124 -121zM456 119l-113 113l76 72l111 -111zM411 395l-76 72l121 114l74 -74z" />
    <glyph glyph-name="yen" unicode="&#xa5;" horiz-adv-x="596" 
d="M363 291l-123 31l195 383h154zM230 0v336h137v-336h-137zM87 176v76h421v-76h-421zM87 289v76h421v-76h-421zM234 291l-227 414h154l196 -383z" />
    <glyph glyph-name="brokenbar" unicode="&#xa6;" horiz-adv-x="304" 
d="M100 350v440h104v-440h-104zM100 -220v440h104v-440h-104z" />
    <glyph glyph-name="section" unicode="&#xa7;" horiz-adv-x="524" 
d="M267 -91q-55 0 -99.5 18t-73 46.5t-36.5 61.5l101 32q9 -28 36 -47.5t66 -20.5q43 0 69 18.5t26 49.5q0 27 -21 44.5t-57 26.5l-71 18q-59 16 -96.5 53.5t-37.5 97.5q0 76 51.5 119t143.5 43q50 0 87.5 -15.5t63 -43t38.5 -65.5l-94 -30q-9 27 -37 45.5t-65 18.5
q-38 0 -60 -18.5t-22 -51.5q0 -25 18 -40t48 -22l72 -19q69 -18 107.5 -61.5t38.5 -97.5q0 -72 -50.5 -116t-145.5 -44zM267 152q-49 0 -89.5 18.5t-66.5 48t-33 63.5l80 27q7 -17 25 -32.5t40.5 -24.5t42.5 -9q40 0 65 18t25 49q0 26 -21 43.5t-58 26.5l-70 19
q-59 16 -96.5 53.5t-37.5 97.5q0 76 51 119t144 43q52 0 90.5 -15t65 -42.5t39.5 -64.5l-100 -32q-9 27 -34.5 45.5t-63.5 18.5q-41 0 -63.5 -18.5t-22.5 -51.5q0 -26 18.5 -41t48.5 -22l71 -18q70 -17 108 -61t38 -98q0 -72 -50.5 -116t-145.5 -44z" />
    <glyph glyph-name="dieresis" unicode="&#xa8;" horiz-adv-x="484" 
d="M371 593q-27 0 -47.5 21t-20.5 48q0 28 20.5 48.5t47.5 20.5q28 0 48.5 -20.5t20.5 -48.5q0 -27 -20.5 -48t-48.5 -21zM113 593q-28 0 -48.5 20.5t-20.5 48.5q0 29 20.5 49t48.5 20t48 -20t20 -49q0 -28 -20 -48.5t-48 -20.5z" />
    <glyph glyph-name="copyright" unicode="&#xa9;" horiz-adv-x="793" 
d="M397 -11q-77 0 -143.5 27t-115.5 76t-76 115t-27 143q0 78 27 144t76 115t115.5 76t143.5 27t143 -27t115 -76t76 -115t27 -144q0 -77 -27 -143t-76 -115t-115 -76t-143 -27zM397 152q-57 0 -99 24.5t-64.5 69t-22.5 104.5t22.5 104.5t64 69t98.5 24.5q48 0 91 -25.5
t66 -68.5l13 -26l-81 -31l-13 19q-13 20 -34 31.5t-42 11.5q-43 0 -68 -30t-25 -79t25.5 -79t68.5 -30q22 0 43.5 14.5t36.5 37.5l8 15l84 -30l-11 -21q-24 -48 -67.5 -76.5t-93.5 -28.5zM397 77q79 0 139 35t94.5 97t34.5 141q0 80 -34.5 142t-95 97t-138.5 35t-138.5 -35
t-95.5 -97t-35 -142q0 -79 35 -141t95.5 -97t138.5 -35z" />
    <glyph glyph-name="ordfeminine" unicode="&#xaa;" horiz-adv-x="337" 
d="M214 400l-3 149q-1 24 -4.5 42.5t-15 28.5t-37.5 10q-16 0 -26.5 -7t-20.5 -21l-85 28q21 36 54 56.5t81 20.5q70 0 108.5 -38t38.5 -102v-167h-90zM132 393q-53 0 -82 24t-29 68q0 46 29.5 69t81.5 23h92v-57h-57q-50 0 -50 -34q0 -11 9.5 -17.5t26.5 -6.5q25 0 40 15.5
t15 41.5l32 9q0 -64 -29 -99.5t-79 -35.5z" />
    <glyph glyph-name="guillemotleft" unicode="&#xab;" 
d="M430 96l-148 202l148 202h151l-143 -202l143 -202h-151zM195 96l-148 202l148 202h151l-143 -202l143 -202h-151z" />
    <glyph glyph-name="logicalnot" unicode="&#xac;" 
d="M130 279v109h366v-109h-366zM387 161v227h109v-227h-109z" />
    <glyph glyph-name="registered" unicode="&#xae;" horiz-adv-x="615" 
d="M308 157q-58 0 -108.5 21.5t-88.5 59.5t-59.5 88.5t-21.5 107.5q0 58 21.5 108.5t59.5 88.5t88.5 59.5t108.5 21.5q57 0 107.5 -21.5t88.5 -59.5t59.5 -88.5t21.5 -108.5q0 -57 -21.5 -107.5t-59.5 -88.5t-88.5 -59.5t-107.5 -21.5zM308 223q62 0 109 26.5t73.5 74.5
t26.5 110q0 64 -26.5 111t-73.5 74t-109 27q-63 0 -110 -27t-73.5 -74t-26.5 -111q0 -62 26.5 -110t73.5 -74.5t110 -26.5zM202 296v291l114 1q47 0 77 -27t30 -70q0 -28 -14.5 -50.5t-39.5 -34.5l66 -110h-74l-56 98h-38v-98h-65zM267 454h47q18 0 29.5 10.5t11.5 26.5
t-12 26.5t-31 10.5h-45v-74z" />
    <glyph glyph-name="macron" unicode="&#xaf;" horiz-adv-x="300" 
d="M-12 561v114h324v-114h-324z" />
    <glyph glyph-name="degree" unicode="&#xb0;" horiz-adv-x="378" 
d="M189 422q-41 0 -75.5 20t-55 54t-20.5 75q0 40 20.5 73t55 52.5t75.5 19.5q40 0 75 -19.5t55.5 -52.5t20.5 -73q0 -41 -20.5 -75t-55 -54t-75.5 -20zM189 510q22 0 38.5 18t16.5 43q0 23 -16 40t-39 17q-22 0 -38.5 -17t-16.5 -40q0 -25 16.5 -43t38.5 -18z" />
    <glyph glyph-name="plusminus" unicode="&#xb1;" 
d="M85 322v101h462v-101h-462zM85 18v92h462v-92h-462zM263 162v422h107v-422h-107z" />
    <glyph glyph-name="uni00B2" unicode="&#xb2;" horiz-adv-x="367" 
d="M130 436l-97 15q0 16 12 37.5t33.5 43.5t48.5 41l51 35q18 12 35 29t17 35q0 20 -14 32.5t-42 12.5q-21 0 -35.5 -13.5t-19.5 -31.5l-102 17q6 32 26.5 58.5t54 43.5t76.5 17q73 0 115 -37.5t42 -97.5q0 -43 -23.5 -73t-61.5 -56l-51 -35q-14 -10 -28 -23.5t-24.5 -27
t-12.5 -22.5zM33 380v71l73 16h230v-87h-303z" />
    <glyph glyph-name="uni00B3" unicode="&#xb3;" horiz-adv-x="355" 
d="M183 373q-61 0 -103.5 27.5t-52.5 78.5l94 21q6 -13 17.5 -27.5t38.5 -14.5q23 0 37 13t14 35q0 12 -5.5 23.5t-21 18t-45.5 6.5h-33v64h29q46 0 86 -15.5t65 -43.5t25 -66q0 -39 -21 -65.5t-54 -40.5t-70 -14zM123 575v59h33q36 0 51 12.5t15 33.5q0 18 -12.5 30
t-33.5 12q-16 0 -31 -9t-22 -33l-92 21q6 35 28.5 58.5t54 35.5t65.5 12q39 0 71.5 -15t51.5 -40.5t19 -60.5q0 -40 -25 -65.5t-64 -38t-80 -12.5h-29z" />
    <glyph glyph-name="acute" unicode="&#xb4;" horiz-adv-x="263" 
d="M1 562l114 138h148l-129 -138h-133z" />
    <glyph glyph-name="uni00B5" unicode="&#xb5;" horiz-adv-x="568" 
d="M272 -12q-69 0 -109 55.5t-39 170.5l56 30q0 -50 11.5 -78.5t33 -41t48.5 -12.5q52 -1 79 31.5t27 94.5h45q0 -119 -38.5 -184.5t-113.5 -65.5zM48 -200v700h132v-411l-12 -1v-288h-120zM387 0l-8 92v408h132v-500h-124z" />
    <glyph glyph-name="paragraph" unicode="&#xb6;" horiz-adv-x="585" 
d="M256 232q-71 0 -125 30.5t-85 83.5t-31 121q0 69 31 121.5t85 82t125 29.5h48v-468h-48zM270 -84v784h96v-784h-96zM413 -84v784h96v-784h-96zM360 575v125h64v-125h-64z" />
    <glyph glyph-name="periodcentered" unicode="&#xb7;" horiz-adv-x="260" 
d="M130 257q-33 0 -56.5 24t-23.5 57q0 32 23.5 56t56.5 24t56.5 -24t23.5 -56q0 -33 -23.5 -57t-56.5 -24z" />
    <glyph glyph-name="cedilla" unicode="&#xb8;" horiz-adv-x="235" 
d="M106 -210q-22 0 -46 7t-50 22l20 63q15 -8 29.5 -13t26.5 -5q17 0 29 6t12 21q0 20 -16.5 30t-48.5 12l30 73l76 -6l-13 -29q35 -12 52.5 -34.5t17.5 -49.5q0 -43 -30 -70t-89 -27z" />
    <glyph glyph-name="uni00B9" unicode="&#xb9;" horiz-adv-x="280" 
d="M119 380v367l10 53h84v-420h-94zM33 654v90q23 -2 48.5 15.5t47.5 41.5l63 -61q-39 -44 -78 -67t-81 -19z" />
    <glyph glyph-name="ordmasculine" unicode="&#xba;" horiz-adv-x="362" 
d="M182 393q-47 0 -83.5 20t-57 55.5t-20.5 81.5t20.5 81.5t56.5 55.5t83 20q71 0 115.5 -44t44.5 -113q0 -46 -20.5 -81.5t-56.5 -55.5t-82 -20zM182 482q26 0 43.5 19t17.5 49t-17.5 49.5t-44.5 19.5t-44 -19.5t-17 -49.5t17.5 -49t44.5 -19z" />
    <glyph glyph-name="guillemotright" unicode="&#xbb;" 
d="M202 96h-151l143 202l-143 202h151l148 -202zM437 96h-151l142 202l-142 202h151l148 -202z" />
    <glyph glyph-name="onequarter" unicode="&#xbc;" horiz-adv-x="838" 
d="M119 280v367l10 53h84v-420h-94zM33 554v90q23 -2 48.5 15.5t47.5 41.5l63 -61q-39 -44 -78 -67t-81 -19zM101 0l481 700h99l-481 -700h-99zM532 115l-71 37l183 268l58 -55zM461 72v80l54 4h302v-84h-356zM657 0v368l-12 52h106v-420h-94z" />
    <glyph glyph-name="onehalf" unicode="&#xbd;" horiz-adv-x="869" 
d="M119 280v367l10 53h84v-420h-94zM33 554v90q23 -2 48.5 15.5t47.5 41.5l63 -61q-39 -44 -78 -67t-81 -19zM101 0l481 700h99l-481 -700h-99zM632 56l-97 15q0 16 12 37.5t33.5 43.5t48.5 41l51 35q18 12 35 29t17 35q0 20 -14 32.5t-42 12.5q-21 0 -35.5 -13.5
t-19.5 -31.5l-102 17q6 32 26.5 58.5t54 43.5t76.5 17q73 0 115 -37.5t42 -97.5q0 -43 -23.5 -73t-61.5 -56l-51 -35q-14 -10 -28 -23.5t-24.5 -27t-12.5 -22.5zM535 0v71l73 16h230v-87h-303z" />
    <glyph glyph-name="threequarters" unicode="&#xbe;" horiz-adv-x="913" 
d="M183 273q-61 0 -103.5 27.5t-52.5 78.5l94 21q6 -13 17.5 -27.5t38.5 -14.5q23 0 37 13t14 35q0 12 -5.5 23.5t-21 18t-45.5 6.5h-33v64h29q46 0 86 -15.5t65 -43.5t25 -66q0 -39 -21 -65.5t-54 -40.5t-70 -14zM123 475v59h33q36 0 51 12.5t15 33.5q0 18 -12.5 30
t-33.5 12q-16 0 -31 -9t-22 -33l-92 21q6 35 28.5 58.5t54 35.5t65.5 12q39 0 71.5 -15t51.5 -40.5t19 -60.5q0 -40 -25 -65.5t-64 -38t-80 -12.5h-29zM176 0l481 700h99l-481 -700h-99zM607 115l-71 37l183 268l58 -55zM536 72v80l54 4h302v-84h-356zM732 0v368l-12 52h106
v-420h-94z" />
    <glyph glyph-name="questiondown" unicode="&#xbf;" horiz-adv-x="470" 
d="M323 297l4 -176l-73 -6q-53 -2 -86 -29.5t-33 -78.5q0 -44 31 -73t80 -29q36 0 61.5 17.5t35.5 43.5l120 -34q-19 -67 -76.5 -106.5t-140.5 -39.5q-70 0 -123.5 28.5t-84.5 78.5t-31 114q0 54 23.5 95.5t66 67t98.5 32.5l2 95h126zM260 512q33 0 56.5 -23.5t23.5 -56.5
t-23.5 -56.5t-56.5 -23.5t-56.5 23.5t-23.5 56.5t23.5 56.5t56.5 23.5z" />
    <glyph glyph-name="Agrave" unicode="&#xc0;" horiz-adv-x="714" 
d="M8 0l276 700h146l276 -700h-145l-60 154h-288l-60 -154h-145zM258 275h198l-99 254zM333 750l-131 139h148l116 -139h-133z" />
    <glyph glyph-name="Aacute" unicode="&#xc1;" horiz-adv-x="714" 
d="M8 0l276 700h146l276 -700h-145l-60 154h-288l-60 -154h-145zM258 275h198l-99 254zM273 747l114 131h148l-129 -131h-133z" />
    <glyph glyph-name="Acircumflex" unicode="&#xc2;" horiz-adv-x="714" 
d="M8 0l276 700h146l276 -700h-145l-60 154h-288l-60 -154h-145zM258 275h198l-99 254zM426 761l-140 131v8h136l124 -139h-120zM161 761l124 139h136v-8l-140 -131h-120z" />
    <glyph glyph-name="Atilde" unicode="&#xc3;" horiz-adv-x="714" 
d="M8 0l276 700h146l276 -700h-145l-60 154h-288l-60 -154h-145zM258 275h198l-99 254zM439 737q-33 0 -52.5 11t-30.5 25t-21 25t-25 11q-12 0 -20.5 -7t-14.5 -31h-89q5 41 19.5 68.5t40 41.5t60.5 14t54.5 -11t31.5 -25t22 -25t25 -11t21.5 11t8.5 28h89
q-7 -56 -35.5 -90.5t-83.5 -34.5z" />
    <glyph glyph-name="Adieresis" unicode="&#xc4;" horiz-adv-x="714" 
d="M8 0l276 700h146l276 -700h-145l-60 154h-288l-60 -154h-145zM258 275h198l-99 254zM486 781q-27 0 -47.5 21t-20.5 48q0 28 20.5 48.5t47.5 20.5q28 0 48.5 -20.5t20.5 -48.5q0 -27 -20.5 -48t-48.5 -21zM228 781q-28 0 -48.5 20.5t-20.5 48.5q0 29 20.5 49t48.5 20
t48 -20t20 -49q0 -28 -20 -48.5t-48 -20.5z" />
    <glyph glyph-name="Aring" unicode="&#xc5;" horiz-adv-x="714" 
d="M8 0l276 700h146l276 -700h-145l-60 154h-288l-60 -154h-145zM258 275h198l-99 254zM357 726q-32 0 -59 15t-43 40t-16 56q0 32 16 57t43 40t59 15t58.5 -15t42.5 -40t16 -57q0 -31 -16 -56t-42.5 -40t-58.5 -15zM357 802q34 0 34 35q0 36 -34 36q-35 0 -35 -36
q0 -35 35 -35z" />
    <glyph glyph-name="AE" unicode="&#xc6;" horiz-adv-x="1018" 
d="M8 0l396 700h544v-125h-303v-159h261v-122h-261v-169h307v-125h-447v154h-254l-88 -154h-155zM314 275h191v300h-23z" />
    <glyph glyph-name="Ccedilla" unicode="&#xc7;" horiz-adv-x="725" 
d="M385 -12q-102 0 -181 46.5t-124 128t-45 187.5t45 187.5t123.5 128t180.5 46.5q72 0 134 -25.5t108.5 -71t71.5 -104.5l-127 -47q-17 37 -45 64.5t-64 43t-78 15.5q-61 0 -108.5 -30.5t-74 -83.5t-26.5 -123t27 -123.5t75 -84t110 -30.5q43 0 78.5 16.5t63 45.5t44.5 67
l127 -46q-25 -61 -71.5 -108t-108.5 -73t-135 -26zM343 -210q-22 0 -46 7t-50 22l20 63q15 -8 29.5 -13t26.5 -5q17 0 29 6t12 21q0 20 -16.5 30t-48.5 12l30 73l76 -6l-13 -29q35 -12 52.5 -34.5t17.5 -49.5q0 -43 -30 -70t-89 -27z" />
    <glyph glyph-name="Egrave" unicode="&#xc8;" horiz-adv-x="589" 
d="M76 0v700h443v-125h-306v-159h264v-122h-264v-169h310v-125h-447zM272 750l-131 139h148l116 -139h-133z" />
    <glyph glyph-name="Eacute" unicode="&#xc9;" horiz-adv-x="589" 
d="M76 0v700h443v-125h-306v-159h264v-122h-264v-169h310v-125h-447zM212 747l113 131h148l-129 -131h-132z" />
    <glyph glyph-name="Ecircumflex" unicode="&#xca;" horiz-adv-x="589" 
d="M76 0v700h443v-125h-306v-159h264v-122h-264v-169h310v-125h-447zM365 761l-140 131v8h136l124 -139h-120zM100 761l124 139h136v-8l-140 -131h-120z" />
    <glyph glyph-name="Edieresis" unicode="&#xcb;" horiz-adv-x="589" 
d="M76 0v700h443v-125h-306v-159h264v-122h-264v-169h310v-125h-447zM425 781q-27 0 -47.5 21t-20.5 48q0 28 20.5 48.5t47.5 20.5q28 0 48.5 -20.5t20.5 -48.5q0 -27 -20.5 -48t-48.5 -21zM167 781q-28 0 -48.5 20.5t-20.5 48.5q0 29 20.5 49t48.5 20t48 -20t20 -49
q0 -28 -20 -48.5t-48 -20.5z" />
    <glyph glyph-name="Igrave" unicode="&#xcc;" horiz-adv-x="289" 
d="M76 0v700h137v-700h-137zM121 750l-131 139h148l116 -139h-133z" />
    <glyph glyph-name="Iacute" unicode="&#xcd;" horiz-adv-x="289" 
d="M76 0v700h137v-700h-137zM62 747l113 131h148l-129 -131h-132z" />
    <glyph glyph-name="Icircumflex" unicode="&#xce;" horiz-adv-x="289" 
d="M76 0v700h137v-700h-137zM215 761l-140 131v8h136l124 -139h-120zM-50 761l124 139h136v-8l-140 -131h-120z" />
    <glyph glyph-name="Idieresis" unicode="&#xcf;" horiz-adv-x="304" 
d="M236 781q-27 0 -48 21t-21 48q0 28 21 48.5t48 20.5q28 0 48.5 -20.5t20.5 -48.5q0 -27 -20.5 -48t-48.5 -21zM68 781q-28 0 -48.5 20.5t-20.5 48.5q0 29 20.5 49t48.5 20t48.5 -20t20.5 -49q0 -28 -20.5 -48.5t-48.5 -20.5zM76 0v700h137v-700h-137z" />
    <glyph glyph-name="Eth" unicode="&#xd0;" horiz-adv-x="746" 
d="M56 300v100h329v-100h-329zM122 0v700h224q107 0 189.5 -45t129 -123.5t46.5 -181.5q0 -102 -46.5 -181t-129 -124t-189.5 -45h-224zM259 128h87q48 0 89 17t71.5 47t47.5 70.5t17 87.5t-17 87.5t-47.5 70.5t-71.5 47t-89 17h-87v-444z" />
    <glyph glyph-name="Ntilde" unicode="&#xd1;" horiz-adv-x="773" 
d="M76 0v700h143l342 -470v470h136v-700h-136l-348 479v-479h-137zM466 725q-33 0 -52.5 11t-30.5 25t-21 25t-25 11q-12 0 -20.5 -7t-14.5 -31h-89q5 41 19.5 68.5t40 41.5t60.5 14t54.5 -11t31.5 -25t22 -25t25 -11t21.5 11t8.5 28h89q-7 -56 -35.5 -90.5t-83.5 -34.5z
" />
    <glyph glyph-name="Ograve" unicode="&#xd2;" horiz-adv-x="787" 
d="M396 -12q-106 0 -187.5 46.5t-127.5 128t-46 186.5q0 107 46 188.5t126.5 127.5t185.5 46q106 0 186.5 -46.5t126.5 -128t46 -187.5q0 -105 -45.5 -186.5t-126 -128t-184.5 -46.5zM396 113q64 0 112.5 30.5t76 83.5t27.5 122q0 70 -28 123t-77 83.5t-114 30.5
q-63 0 -112.5 -30.5t-77.5 -83.5t-28 -123q0 -69 28 -122t78 -83.5t115 -30.5zM369 750l-131 139h148l116 -139h-133z" />
    <glyph glyph-name="Oacute" unicode="&#xd3;" horiz-adv-x="787" 
d="M396 -12q-106 0 -187.5 46.5t-127.5 128t-46 186.5q0 107 46 188.5t126.5 127.5t185.5 46q106 0 186.5 -46.5t126.5 -128t46 -187.5q0 -105 -45.5 -186.5t-126 -128t-184.5 -46.5zM396 113q64 0 112.5 30.5t76 83.5t27.5 122q0 70 -28 123t-77 83.5t-114 30.5
q-63 0 -112.5 -30.5t-77.5 -83.5t-28 -123q0 -69 28 -122t78 -83.5t115 -30.5zM308 747l116 131h150l-132 -131h-134z" />
    <glyph glyph-name="Ocircumflex" unicode="&#xd4;" horiz-adv-x="787" 
d="M396 -12q-106 0 -187.5 46.5t-127.5 128t-46 186.5q0 107 46 188.5t126.5 127.5t185.5 46q106 0 186.5 -46.5t126.5 -128t46 -187.5q0 -105 -45.5 -186.5t-126 -128t-184.5 -46.5zM396 113q64 0 112.5 30.5t76 83.5t27.5 122q0 70 -28 123t-77 83.5t-114 30.5
q-63 0 -112.5 -30.5t-77.5 -83.5t-28 -123q0 -69 28 -122t78 -83.5t115 -30.5zM463 761l-140 131v8h136l124 -139h-120zM198 761l124 139h136v-8l-140 -131h-120z" />
    <glyph glyph-name="Otilde" unicode="&#xd5;" horiz-adv-x="787" 
d="M396 -12q-106 0 -187.5 46.5t-127.5 128t-46 186.5q0 107 46 188.5t126.5 127.5t185.5 46q106 0 186.5 -46.5t126.5 -128t46 -187.5q0 -105 -45.5 -186.5t-126 -128t-184.5 -46.5zM396 113q64 0 112.5 30.5t76 83.5t27.5 122q0 70 -28 123t-77 83.5t-114 30.5
q-63 0 -112.5 -30.5t-77.5 -83.5t-28 -123q0 -69 28 -122t78 -83.5t115 -30.5zM475 737q-33 0 -52.5 11t-30.5 25t-21 25t-25 11q-12 0 -20.5 -7t-14.5 -31h-89q5 41 19.5 68.5t40 41.5t60.5 14t54.5 -11t31.5 -25t22 -25t25 -11t21.5 11t8.5 28h89q-7 -56 -35.5 -90.5
t-83.5 -34.5z" />
    <glyph glyph-name="Odieresis" unicode="&#xd6;" horiz-adv-x="787" 
d="M396 -12q-106 0 -187.5 46.5t-127.5 128t-46 186.5q0 107 46 188.5t126.5 127.5t185.5 46q106 0 186.5 -46.5t126.5 -128t46 -187.5q0 -105 -45.5 -186.5t-126 -128t-184.5 -46.5zM396 113q64 0 112.5 30.5t76 83.5t27.5 122q0 70 -28 123t-77 83.5t-114 30.5
q-63 0 -112.5 -30.5t-77.5 -83.5t-28 -123q0 -69 28 -122t78 -83.5t115 -30.5zM523 781q-27 0 -47.5 21t-20.5 48q0 28 20.5 48.5t47.5 20.5q28 0 48.5 -20.5t20.5 -48.5q0 -27 -20.5 -48t-48.5 -21zM265 781q-28 0 -48.5 20.5t-20.5 48.5q0 29 20.5 49t48.5 20t48 -20
t20 -49q0 -28 -20 -48.5t-48 -20.5z" />
    <glyph glyph-name="multiply" unicode="&#xd7;" 
d="M449 91l-340 340l74 74l340 -340zM183 91l-74 74l339 340l74 -74z" />
    <glyph glyph-name="Oslash" unicode="&#xd8;" horiz-adv-x="790" 
d="M31 0l606 700h123l-607 -700h-122zM395 -12q-106 0 -187.5 46.5t-127.5 128t-46 186.5q0 107 46 188.5t126.5 127.5t185.5 46q106 0 186.5 -46.5t126.5 -128t46 -187.5q0 -105 -45.5 -186.5t-126 -128t-184.5 -46.5zM395 113q64 0 112.5 30.5t76 83.5t27.5 122
q0 70 -28 123t-77 83.5t-114 30.5q-63 0 -112.5 -30.5t-77.5 -83.5t-28 -123q0 -69 28 -122t78 -83.5t115 -30.5z" />
    <glyph glyph-name="Ugrave" unicode="&#xd9;" horiz-adv-x="704" 
d="M350 -14q-87 0 -151 34t-98.5 95.5t-34.5 145.5v439h137v-439q0 -45 18.5 -78.5t52 -51.5t78.5 -18t78.5 18t52 51.5t18.5 78.5v439h137v-439q0 -84 -35.5 -145.5t-100 -95.5t-152.5 -34zM328 750l-131 139h148l116 -139h-133z" />
    <glyph glyph-name="Uacute" unicode="&#xda;" horiz-adv-x="704" 
d="M350 -14q-87 0 -151 34t-98.5 95.5t-34.5 145.5v439h137v-439q0 -45 18.5 -78.5t52 -51.5t78.5 -18t78.5 18t52 51.5t18.5 78.5v439h137v-439q0 -84 -35.5 -145.5t-100 -95.5t-152.5 -34zM268 748l113 134h148l-129 -134h-132z" />
    <glyph glyph-name="Ucircumflex" unicode="&#xdb;" horiz-adv-x="704" 
d="M350 -14q-87 0 -151 34t-98.5 95.5t-34.5 145.5v439h137v-439q0 -45 18.5 -78.5t52 -51.5t78.5 -18t78.5 18t52 51.5t18.5 78.5v439h137v-439q0 -84 -35.5 -145.5t-100 -95.5t-152.5 -34zM421 761l-140 131v8h136l124 -139h-120zM156 761l124 139h136v-8l-140 -131h-120z
" />
    <glyph glyph-name="Udieresis" unicode="&#xdc;" horiz-adv-x="704" 
d="M350 -14q-87 0 -151 34t-98.5 95.5t-34.5 145.5v439h137v-439q0 -45 18.5 -78.5t52 -51.5t78.5 -18t78.5 18t52 51.5t18.5 78.5v439h137v-439q0 -84 -35.5 -145.5t-100 -95.5t-152.5 -34zM481 781q-27 0 -47.5 21t-20.5 48q0 28 20.5 48.5t47.5 20.5q28 0 48.5 -20.5
t20.5 -48.5q0 -27 -20.5 -48t-48.5 -21zM223 781q-28 0 -48.5 20.5t-20.5 48.5q0 29 20.5 49t48.5 20t48 -20t20 -49q0 -28 -20 -48.5t-48 -20.5z" />
    <glyph glyph-name="Yacute" unicode="&#xdd;" horiz-adv-x="647" 
d="M255 0v295l-248 405h156l160 -268l161 268h156l-248 -404v-296h-137zM239 732l114 138h148l-129 -138h-133z" />
    <glyph glyph-name="Thorn" unicode="&#xde;" horiz-adv-x="615" 
d="M82 1v700h140v-109h123q74 0 131 -29.5t89 -82t32 -121.5q0 -68 -31 -121t-85 -83t-125 -30h-134v-124h-140zM222 250h128q46 0 75.5 30.5t29.5 78.5t-32.5 78.5t-83.5 30.5h-117v-218z" />
    <glyph glyph-name="germandbls" unicode="&#xdf;" horiz-adv-x="587" 
d="M57 0v493q0 72 30 120.5t84 73.5t125 25q69 0 121.5 -23.5t82 -68.5t29.5 -112q0 -44 -17.5 -81t-50.5 -63q46 -24 68.5 -66t22.5 -104t-28 -105t-79 -66t-119 -23h-54v121h41q49 0 77 24t28 61q0 40 -28 63.5t-76 23.5h-40v124h9q40 0 65 11t36.5 32t11.5 50
q0 41 -29 64.5t-72 23.5q-47 0 -75.5 -28t-28.5 -77v-493h-134z" />
    <glyph glyph-name="agrave" unicode="&#xe0;" horiz-adv-x="528" 
d="M219 -12q-90 0 -139.5 40t-49.5 113q0 80 53.5 120.5t150.5 40.5h118q-7 46 -29 70.5t-63 24.5q-32 0 -58 -14t-44 -43l-116 40q14 32 41 62.5t70.5 50t106.5 19.5q76 0 126.5 -29t75 -81.5t23.5 -124.5l-3 -277h-123l-2 58q-19 -34 -53.5 -52t-84.5 -18zM241 98
q32 0 58 15t41 39t15 50v2h-75q-65 0 -90 -15.5t-25 -43.5q0 -22 20 -34.5t56 -12.5zM228 562l-131 139h148l116 -139h-133z" />
    <glyph glyph-name="aacute" unicode="&#xe1;" horiz-adv-x="528" 
d="M219 -12q-90 0 -139.5 40t-49.5 113q0 80 53.5 120.5t150.5 40.5h118q-7 46 -29 70.5t-63 24.5q-32 0 -58 -14t-44 -43l-116 40q14 32 41 62.5t70.5 50t106.5 19.5q76 0 126.5 -29t75 -81.5t23.5 -124.5l-3 -277h-123l-2 58q-19 -34 -53.5 -52t-84.5 -18zM241 98
q32 0 58 15t41 39t15 50v2h-75q-65 0 -90 -15.5t-25 -43.5q0 -22 20 -34.5t56 -12.5zM168 562l114 138h148l-129 -138h-133z" />
    <glyph glyph-name="acircumflex" unicode="&#xe2;" horiz-adv-x="528" 
d="M219 -12q-90 0 -139.5 40t-49.5 113q0 80 53.5 120.5t150.5 40.5h118q-7 46 -29 70.5t-63 24.5q-32 0 -58 -14t-44 -43l-116 40q14 32 41 62.5t70.5 50t106.5 19.5q76 0 126.5 -29t75 -81.5t23.5 -124.5l-3 -277h-123l-2 58q-19 -34 -53.5 -52t-84.5 -18zM241 98
q32 0 58 15t41 39t15 50v2h-75q-65 0 -90 -15.5t-25 -43.5q0 -22 20 -34.5t56 -12.5zM321 573l-140 131v8h136l124 -139h-120zM56 573l124 139h136v-8l-140 -131h-120z" />
    <glyph glyph-name="atilde" unicode="&#xe3;" horiz-adv-x="528" 
d="M219 -12q-90 0 -139.5 40t-49.5 113q0 80 53.5 120.5t150.5 40.5h118q-7 46 -29 70.5t-63 24.5q-32 0 -58 -14t-44 -43l-116 40q14 32 41 62.5t70.5 50t106.5 19.5q76 0 126.5 -29t75 -81.5t23.5 -124.5l-3 -277h-123l-2 58q-19 -34 -53.5 -52t-84.5 -18zM241 98
q32 0 58 15t41 39t15 50v2h-75q-65 0 -90 -15.5t-25 -43.5q0 -22 20 -34.5t56 -12.5zM333 549q-33 0 -52.5 11t-30.5 25t-21 25t-25 11q-12 0 -20.5 -7t-14.5 -31h-89q5 41 19.5 68.5t40 41.5t60.5 14t54.5 -11t31.5 -25t22 -25t25 -11t21.5 11t8.5 28h89
q-7 -56 -35.5 -90.5t-83.5 -34.5z" />
    <glyph glyph-name="adieresis" unicode="&#xe4;" horiz-adv-x="528" 
d="M219 -12q-90 0 -139.5 40t-49.5 113q0 80 53.5 120.5t150.5 40.5h118q-7 46 -29 70.5t-63 24.5q-32 0 -58 -14t-44 -43l-116 40q14 32 41 62.5t70.5 50t106.5 19.5q76 0 126.5 -29t75 -81.5t23.5 -124.5l-3 -277h-123l-2 58q-19 -34 -53.5 -52t-84.5 -18zM241 98
q32 0 58 15t41 39t15 50v2h-75q-65 0 -90 -15.5t-25 -43.5q0 -22 20 -34.5t56 -12.5zM381 593q-27 0 -47.5 21t-20.5 48q0 28 20.5 48.5t47.5 20.5q28 0 48.5 -20.5t20.5 -48.5q0 -27 -20.5 -48t-48.5 -21zM123 593q-28 0 -48.5 20.5t-20.5 48.5q0 29 20.5 49t48.5 20
t48 -20t20 -49q0 -28 -20 -48.5t-48 -20.5z" />
    <glyph glyph-name="aring" unicode="&#xe5;" horiz-adv-x="528" 
d="M219 -12q-90 0 -139.5 40t-49.5 113q0 80 53.5 120.5t150.5 40.5h118q-7 46 -29 70.5t-63 24.5q-32 0 -58 -14t-44 -43l-116 40q14 32 41 62.5t70.5 50t106.5 19.5q76 0 126.5 -29t75 -81.5t23.5 -124.5l-3 -277h-123l-2 58q-19 -34 -53.5 -52t-84.5 -18zM241 98
q32 0 58 15t41 39t15 50v2h-75q-65 0 -90 -15.5t-25 -43.5q0 -22 20 -34.5t56 -12.5zM252 538q-32 0 -59 15t-43 40t-16 56q0 32 16 57t43 40t59 15t58.5 -15t42.5 -40t16 -57q0 -31 -16 -56t-42.5 -40t-58.5 -15zM252 614q34 0 34 35q0 36 -34 36q-35 0 -35 -36
q0 -35 35 -35z" />
    <glyph glyph-name="ae" unicode="&#xe6;" horiz-adv-x="875" 
d="M358 168l-6 86q-4 47 -12 80.5t-29.5 51.5t-64.5 18q-33 0 -56 -13.5t-40 -41.5l-117 40q34 58 87 90.5t128 32.5q101 0 154.5 -62.5t53.5 -173.5v-108h-98zM215 -12q-87 0 -136 40t-49 113q0 76 49 115t136 39h164v-84h-119q-50 0 -74 -17.5t-24 -50.5q0 -27 20.5 -42
t56.5 -15q51 0 80.5 35t29.5 93l105 11q0 -111 -63 -174t-176 -63zM601 -12q-74 0 -131 33.5t-89.5 92.5t-32.5 136t33.5 136t92 92.5t134.5 33.5q66 0 121.5 -34.5t89 -101t33.5 -161.5h-366q5 -50 43 -79.5t86 -29.5q41 0 67 17.5t40 45.5l118 -46q-21 -42 -54.5 -72.5
t-79.5 -46.5t-105 -16zM493 313h216q-3 31 -20 50t-40 28t-45 9q-21 0 -45.5 -8.5t-43 -27.5t-22.5 -51z" />
    <glyph glyph-name="ccedilla" unicode="&#xe7;" horiz-adv-x="546" 
d="M298 -12q-78 0 -139 33.5t-95 93t-34 135.5q0 77 34 136t94 92.5t138 33.5q75 0 137 -37t90 -107l-124 -44q-14 29 -43.5 46.5t-65.5 17.5q-37 0 -65 -17.5t-44 -48.5t-16 -72t16 -71.5t45 -48.5t66 -18q36 0 65.5 19t43.5 50l125 -44q-29 -71 -90.5 -110t-137.5 -39z
M255 -211q-22 0 -46 7t-50 22l20 63q15 -8 29.5 -13t26.5 -5q17 0 29 6t12 21q0 20 -16.5 30t-48.5 12l30 73l76 -6l-13 -29q35 -12 52.5 -34.5t17.5 -49.5q0 -43 -30 -70t-89 -27z" />
    <glyph glyph-name="egrave" unicode="&#xe8;" horiz-adv-x="557" 
d="M283 -12q-74 0 -131 33.5t-89.5 92.5t-32.5 136t33.5 136t92 92.5t134.5 33.5q66 0 121.5 -34.5t89 -101t33.5 -161.5h-366q5 -50 43 -79.5t86 -29.5q41 0 67 17.5t40 45.5l118 -46q-21 -42 -54.5 -72.5t-79.5 -46.5t-105 -16zM175 313h216q-3 31 -20 50t-40 28t-45 9
q-21 0 -45.5 -8.5t-43 -27.5t-22.5 -51zM267 562l-131 139h148l116 -139h-133z" />
    <glyph glyph-name="eacute" unicode="&#xe9;" horiz-adv-x="557" 
d="M283 -12q-74 0 -131 33.5t-89.5 92.5t-32.5 136t33.5 136t92 92.5t134.5 33.5q66 0 121.5 -34.5t89 -101t33.5 -161.5h-366q5 -50 43 -79.5t86 -29.5q41 0 67 17.5t40 45.5l118 -46q-21 -42 -54.5 -72.5t-79.5 -46.5t-105 -16zM175 313h216q-3 31 -20 50t-40 28t-45 9
q-21 0 -45.5 -8.5t-43 -27.5t-22.5 -51zM207 562l114 138h148l-129 -138h-133z" />
    <glyph glyph-name="ecircumflex" unicode="&#xea;" horiz-adv-x="557" 
d="M283 -12q-74 0 -131 33.5t-89.5 92.5t-32.5 136t33.5 136t92 92.5t134.5 33.5q66 0 121.5 -34.5t89 -101t33.5 -161.5h-366q5 -50 43 -79.5t86 -29.5q41 0 67 17.5t40 45.5l118 -46q-21 -42 -54.5 -72.5t-79.5 -46.5t-105 -16zM175 313h216q-3 31 -20 50t-40 28t-45 9
q-21 0 -45.5 -8.5t-43 -27.5t-22.5 -51zM360 573l-140 131v8h136l124 -139h-120zM95 573l124 139h136v-8l-140 -131h-120z" />
    <glyph glyph-name="edieresis" unicode="&#xeb;" horiz-adv-x="557" 
d="M283 -12q-74 0 -131 33.5t-89.5 92.5t-32.5 136t33.5 136t92 92.5t134.5 33.5q66 0 121.5 -34.5t89 -101t33.5 -161.5h-366q5 -50 43 -79.5t86 -29.5q41 0 67 17.5t40 45.5l118 -46q-21 -42 -54.5 -72.5t-79.5 -46.5t-105 -16zM175 313h216q-3 31 -20 50t-40 28t-45 9
q-21 0 -45.5 -8.5t-43 -27.5t-22.5 -51zM420 593q-27 0 -47.5 21t-20.5 48q0 28 20.5 48.5t47.5 20.5q28 0 48.5 -20.5t20.5 -48.5q0 -27 -20.5 -48t-48.5 -21zM162 593q-28 0 -48.5 20.5t-20.5 48.5q0 29 20.5 49t48.5 20t48 -20t20 -49q0 -28 -20 -48.5t-48 -20.5z" />
    <glyph glyph-name="igrave" unicode="&#xec;" horiz-adv-x="262" 
d="M65 0v500h132v-500h-132zM107 562l-131 139h148l116 -139h-133z" />
    <glyph glyph-name="iacute" unicode="&#xed;" horiz-adv-x="262" 
d="M65 0v500h132v-500h-132zM47 562l114 138h148l-129 -138h-133z" />
    <glyph glyph-name="icircumflex" unicode="&#xee;" horiz-adv-x="262" 
d="M65 0v500h132v-500h-132zM200 573l-140 131v8h136l124 -139h-120zM-65 573l124 139h136v-8l-140 -131h-120z" />
    <glyph glyph-name="idieresis" unicode="&#xef;" horiz-adv-x="262" 
d="M215 593q-27 0 -47.5 21t-20.5 48q0 28 20.5 48.5t47.5 20.5q28 0 48.5 -20.5t20.5 -48.5q0 -27 -20.5 -48t-48.5 -21zM47 593q-28 0 -48.5 20.5t-20.5 48.5q0 29 20.5 49t48.5 20t48.5 -20t20.5 -49q0 -28 -20.5 -48.5t-48.5 -20.5zM65 0v500h132v-500h-132z" />
    <glyph glyph-name="eth" unicode="&#xf0;" horiz-adv-x="572" 
d="M281 -12q-73 0 -130 31t-89 85.5t-32 125.5t29 125t82.5 85t124.5 31q68 0 124 -45q-8 33 -24 60.5t-39 49.5l-74 -50l-36 53l54 36q-54 30 -133 48l24 110q68 -11 121 -33t93 -52l75 51l36 -53l-62 -42q42 -46 65.5 -104t32.5 -123.5t8 -134.5q0 -74 -32 -131.5
t-88.5 -90t-129.5 -32.5zM281 107q35 0 60 16t39.5 43.5t14.5 63.5q0 35 -14.5 62.5t-40.5 43t-61 15.5q-33 0 -58.5 -15.5t-40 -43t-14.5 -62.5q0 -36 14.5 -63.5t40.5 -43.5t60 -16z" />
    <glyph glyph-name="ntilde" unicode="&#xf1;" horiz-adv-x="568" 
d="M57 0v500h124l6 -68q24 39 61.5 59.5t85.5 20.5q59 0 101 -24t64 -74.5t21 -130.5v-283h-132v256q0 51 -11.5 79t-32.5 40.5t-49 12.5q-51 1 -78.5 -31t-27.5 -95v-262h-132zM362 549q-33 0 -52.5 11t-30.5 25t-21 25t-25 11q-12 0 -20.5 -7t-14.5 -31h-89
q5 41 19.5 68.5t40 41.5t60.5 14t54.5 -11t31.5 -25t22 -25t25 -11t21.5 11t8.5 28h89q-7 -56 -35.5 -90.5t-83.5 -34.5z" />
    <glyph glyph-name="ograve" unicode="&#xf2;" horiz-adv-x="581" 
d="M292 -12q-76 0 -135.5 33.5t-93 92.5t-33.5 136t33 136t92 92.5t135 33.5q77 0 136 -33.5t92 -92.5t33 -136t-33 -136t-91.5 -92.5t-134.5 -33.5zM292 110q37 0 65 18t43.5 49.5t15.5 72.5t-16 72.5t-44.5 49.5t-65.5 18q-36 0 -64.5 -18t-44.5 -49.5t-16 -72.5t16 -72.5
t45 -49.5t66 -18zM263 562l-131 139h148l116 -139h-133z" />
    <glyph glyph-name="oacute" unicode="&#xf3;" horiz-adv-x="581" 
d="M292 -12q-76 0 -135.5 33.5t-93 92.5t-33.5 136t33 136t92 92.5t135 33.5q77 0 136 -33.5t92 -92.5t33 -136t-33 -136t-91.5 -92.5t-134.5 -33.5zM292 110q37 0 65 18t43.5 49.5t15.5 72.5t-16 72.5t-44.5 49.5t-65.5 18q-36 0 -64.5 -18t-44.5 -49.5t-16 -72.5t16 -72.5
t45 -49.5t66 -18zM203 562l114 138h148l-129 -138h-133z" />
    <glyph glyph-name="ocircumflex" unicode="&#xf4;" horiz-adv-x="581" 
d="M292 -12q-76 0 -135.5 33.5t-93 92.5t-33.5 136t33 136t92 92.5t135 33.5q77 0 136 -33.5t92 -92.5t33 -136t-33 -136t-91.5 -92.5t-134.5 -33.5zM292 110q37 0 65 18t43.5 49.5t15.5 72.5t-16 72.5t-44.5 49.5t-65.5 18q-36 0 -64.5 -18t-44.5 -49.5t-16 -72.5t16 -72.5
t45 -49.5t66 -18zM357 573l-140 131v8h136l124 -139h-120zM92 573l124 139h136v-8l-140 -131h-120z" />
    <glyph glyph-name="otilde" unicode="&#xf5;" horiz-adv-x="581" 
d="M292 -12q-76 0 -135.5 33.5t-93 92.5t-33.5 136t33 136t92 92.5t135 33.5q77 0 136 -33.5t92 -92.5t33 -136t-33 -136t-91.5 -92.5t-134.5 -33.5zM292 110q37 0 65 18t43.5 49.5t15.5 72.5t-16 72.5t-44.5 49.5t-65.5 18q-36 0 -64.5 -18t-44.5 -49.5t-16 -72.5t16 -72.5
t45 -49.5t66 -18zM369 549q-33 0 -52.5 11t-30.5 25t-21 25t-25 11q-12 0 -20.5 -7t-14.5 -31h-89q5 41 19.5 68.5t40 41.5t60.5 14t54.5 -11t31.5 -25t22 -25t25 -11t21.5 11t8.5 28h89q-7 -56 -35.5 -90.5t-83.5 -34.5z" />
    <glyph glyph-name="odieresis" unicode="&#xf6;" horiz-adv-x="581" 
d="M292 -12q-76 0 -135.5 33.5t-93 92.5t-33.5 136t33 136t92 92.5t135 33.5q77 0 136 -33.5t92 -92.5t33 -136t-33 -136t-91.5 -92.5t-134.5 -33.5zM292 110q37 0 65 18t43.5 49.5t15.5 72.5t-16 72.5t-44.5 49.5t-65.5 18q-36 0 -64.5 -18t-44.5 -49.5t-16 -72.5t16 -72.5
t45 -49.5t66 -18zM417 593q-27 0 -47.5 21t-20.5 48q0 28 20.5 48.5t47.5 20.5q28 0 48.5 -20.5t20.5 -48.5q0 -27 -20.5 -48t-48.5 -21zM159 593q-28 0 -48.5 20.5t-20.5 48.5q0 29 20.5 49t48.5 20t48 -20t20 -49q0 -28 -20 -48.5t-48 -20.5z" />
    <glyph glyph-name="divide" unicode="&#xf7;" 
d="M111 243v109h410v-109h-410zM316 74q-24 0 -41.5 17.5t-17.5 41.5q0 25 17.5 42.5t41.5 17.5t42 -17.5t18 -42.5q0 -24 -18 -41.5t-42 -17.5zM316 402q-24 0 -42 18t-18 42t18 41.5t42 17.5t41.5 -17.5t17.5 -41.5t-17.5 -42t-41.5 -18z" />
    <glyph glyph-name="oslash" unicode="&#xf8;" horiz-adv-x="578" 
d="M17 0l429 500h115l-429 -500h-115zM289 -12q-77 0 -136 33.5t-92.5 92.5t-33.5 136t33 136t92 92.5t135 33.5t135.5 -33.5t92.5 -92.5t33 -136t-33 -136t-91.5 -92.5t-134.5 -33.5zM289 110q36 0 64 18t44 49.5t16 72.5t-16 72.5t-44.5 49.5t-65.5 18t-65 -18t-44 -49.5
t-16 -72.5t16 -72.5t45 -49.5t66 -18z" />
    <glyph glyph-name="ugrave" unicode="&#xf9;" horiz-adv-x="568" 
d="M235 -12q-60 0 -101.5 24t-63.5 74.5t-22 130.5v283h132v-256q0 -50 11.5 -78.5t33 -41t48.5 -12.5q52 -1 79 31.5t27 94.5v262h132v-500h-124l-5 68q-25 -38 -62.5 -59t-84.5 -21zM258 562l-131 139h148l116 -139h-133z" />
    <glyph glyph-name="uacute" unicode="&#xfa;" horiz-adv-x="568" 
d="M235 -12q-60 0 -101.5 24t-63.5 74.5t-22 130.5v283h132v-256q0 -50 11.5 -78.5t33 -41t48.5 -12.5q52 -1 79 31.5t27 94.5v262h132v-500h-124l-5 68q-25 -38 -62.5 -59t-84.5 -21zM198 562l114 138h148l-129 -138h-133z" />
    <glyph glyph-name="ucircumflex" unicode="&#xfb;" horiz-adv-x="568" 
d="M235 -12q-60 0 -101.5 24t-63.5 74.5t-22 130.5v283h132v-256q0 -50 11.5 -78.5t33 -41t48.5 -12.5q52 -1 79 31.5t27 94.5v262h132v-500h-124l-5 68q-25 -38 -62.5 -59t-84.5 -21zM351 573l-140 131v8h136l124 -139h-120zM86 573l124 139h136v-8l-140 -131h-120z" />
    <glyph glyph-name="udieresis" unicode="&#xfc;" horiz-adv-x="568" 
d="M235 -12q-60 0 -101.5 24t-63.5 74.5t-22 130.5v283h132v-256q0 -50 11.5 -78.5t33 -41t48.5 -12.5q52 -1 79 31.5t27 94.5v262h132v-500h-124l-5 68q-25 -38 -62.5 -59t-84.5 -21zM411 593q-27 0 -47.5 21t-20.5 48q0 28 20.5 48.5t47.5 20.5q28 0 48.5 -20.5
t20.5 -48.5q0 -27 -20.5 -48t-48.5 -21zM153 593q-28 0 -48.5 20.5t-20.5 48.5q0 29 20.5 49t48.5 20t48 -20t20 -49q0 -28 -20 -48.5t-48 -20.5z" />
    <glyph glyph-name="yacute" unicode="&#xfd;" horiz-adv-x="576" 
d="M157 -212q-27 0 -59.5 10.5t-57.5 24.5l49 107q17 -9 31.5 -14.5t25.5 -5.5q21 0 37 11.5t26 33.5l21 51l-226 494h145l142 -345l136 345h145l-227 -543q-21 -50 -44 -88.5t-56.5 -59.5t-87.5 -21zM203 562l114 138h148l-129 -138h-133z" />
    <glyph glyph-name="thorn" unicode="&#xfe;" horiz-adv-x="596" 
d="M57 -200v900h132v-268q25 39 63 59.5t88 20.5q69 0 119.5 -32t78.5 -90.5t28 -139.5q0 -80 -28 -139t-78.5 -91t-119.5 -32q-50 0 -88 21t-63 59v-268h-132zM306 109q36 0 63.5 18t43.5 50t16 73t-15.5 73t-43 49.5t-63.5 17.5q-34 0 -61 -18t-42 -49.5t-15 -72.5t15 -73
t41.5 -50t60.5 -18z" />
    <glyph glyph-name="ydieresis" unicode="&#xff;" horiz-adv-x="576" 
d="M157 -212q-27 0 -59.5 10.5t-57.5 24.5l49 107q17 -9 31.5 -14.5t25.5 -5.5q21 0 37 11.5t26 33.5l21 51l-226 494h145l142 -345l136 345h145l-227 -543q-21 -50 -44 -88.5t-56.5 -59.5t-87.5 -21zM417 593q-27 0 -47.5 21t-20.5 48q0 28 20.5 48.5t47.5 20.5
q28 0 48.5 -20.5t20.5 -48.5q0 -27 -20.5 -48t-48.5 -21zM159 593q-28 0 -48.5 20.5t-20.5 48.5q0 29 20.5 49t48.5 20t48 -20t20 -49q0 -28 -20 -48.5t-48 -20.5z" />
    <glyph glyph-name="Amacron" unicode="&#x100;" horiz-adv-x="714" 
d="M8 0l276 700h146l276 -700h-145l-60 154h-288l-60 -154h-145zM258 275h198l-99 254zM195 749v114h324v-114h-324z" />
    <glyph glyph-name="amacron" unicode="&#x101;" horiz-adv-x="528" 
d="M219 -12q-90 0 -139.5 40t-49.5 113q0 80 53.5 120.5t150.5 40.5h118q-7 46 -29 70.5t-63 24.5q-32 0 -58 -14t-44 -43l-116 40q14 32 41 62.5t70.5 50t106.5 19.5q76 0 126.5 -29t75 -81.5t23.5 -124.5l-3 -277h-123l-2 58q-19 -34 -53.5 -52t-84.5 -18zM241 98
q32 0 58 15t41 39t15 50v2h-75q-65 0 -90 -15.5t-25 -43.5q0 -22 20 -34.5t56 -12.5zM90 561v114h324v-114h-324z" />
    <glyph glyph-name="Abreve" unicode="&#x102;" horiz-adv-x="714" 
d="M8 0l276 700h146l276 -700h-145l-60 154h-288l-60 -154h-145zM258 275h198l-99 254zM358 741q-54 0 -96.5 18.5t-66.5 52t-24 76.5h122q0 -24 18.5 -39t46.5 -15t46 15t18 39h122q0 -43 -24 -76.5t-65.5 -52t-96.5 -18.5z" />
    <glyph glyph-name="abreve" unicode="&#x103;" horiz-adv-x="528" 
d="M219 -12q-90 0 -139.5 40t-49.5 113q0 80 53.5 120.5t150.5 40.5h118q-7 46 -29 70.5t-63 24.5q-32 0 -58 -14t-44 -43l-116 40q14 32 41 62.5t70.5 50t106.5 19.5q76 0 126.5 -29t75 -81.5t23.5 -124.5l-3 -277h-123l-2 58q-19 -34 -53.5 -52t-84.5 -18zM241 98
q32 0 58 15t41 39t15 50v2h-75q-65 0 -90 -15.5t-25 -43.5q0 -22 20 -34.5t56 -12.5zM253 553q-54 0 -96.5 18.5t-66.5 52t-24 76.5h122q0 -24 18.5 -39t46.5 -15t46 15t18 39h122q0 -43 -24 -76.5t-65.5 -52t-96.5 -18.5z" />
    <glyph glyph-name="Aogonek" unicode="&#x104;" horiz-adv-x="714" 
d="M8 0l276 700h146l276 -700h-145l-60 154h-288l-60 -154h-145zM258 275h198l-99 254zM663 -212q-38 0 -69 12.5t-49 36.5t-18 61q0 32 23 60t54 47l102 -5q-30 -21 -51 -45.5t-21 -49.5q0 -11 7.5 -18t19.5 -7q13 0 22.5 3t14.5 6l39 -83q-15 -9 -33 -13.5t-41 -4.5z" />
    <glyph glyph-name="aogonek" unicode="&#x105;" horiz-adv-x="528" 
d="M219 -12q-90 0 -139.5 40t-49.5 113q0 80 53.5 120.5t150.5 40.5h118q-7 46 -29 70.5t-63 24.5q-32 0 -58 -14t-44 -43l-116 40q14 32 41 62.5t70.5 50t106.5 19.5q76 0 126.5 -29t75 -81.5t23.5 -124.5l-3 -277h-123l-2 58q-19 -34 -53.5 -52t-84.5 -18zM241 98
q32 0 58 15t41 39t15 50v2h-75q-65 0 -90 -15.5t-25 -43.5q0 -22 20 -34.5t56 -12.5zM437 -212q-38 0 -69 12.5t-49 36.5t-18 61q0 32 23 60t54 47l102 -5q-30 -21 -51 -45.5t-21 -49.5q0 -11 7.5 -18t19.5 -7q13 0 22.5 3t14.5 6l39 -83q-15 -9 -33 -13.5t-41 -4.5z" />
    <glyph glyph-name="Cacute" unicode="&#x106;" horiz-adv-x="725" 
d="M385 -12q-102 0 -181 46.5t-124 128t-45 187.5t45 187.5t123.5 128t180.5 46.5q72 0 134 -25.5t108.5 -71t71.5 -104.5l-127 -47q-17 37 -45 64.5t-64 43t-78 15.5q-61 0 -108.5 -30.5t-74 -83.5t-26.5 -123t27 -123.5t75 -84t110 -30.5q43 0 78.5 16.5t63 45.5t44.5 67
l127 -46q-25 -61 -71.5 -108t-108.5 -73t-135 -26zM300 750l114 138h148l-129 -138h-133z" />
    <glyph glyph-name="cacute" unicode="&#x107;" horiz-adv-x="546" 
d="M298 -12q-78 0 -139 33.5t-95 93t-34 135.5q0 77 34 136t94 92.5t138 33.5q75 0 137 -37t90 -107l-124 -44q-14 29 -43.5 46.5t-65.5 17.5q-37 0 -65 -17.5t-44 -48.5t-16 -72t16 -71.5t45 -48.5t66 -18q36 0 65.5 19t43.5 50l125 -44q-29 -71 -90.5 -110t-137.5 -39z
M211 562l114 138h148l-129 -138h-133z" />
    <glyph glyph-name="Ccircumflex" unicode="&#x108;" horiz-adv-x="725" 
d="M385 -12q-102 0 -181 46.5t-124 128t-45 187.5t45 187.5t123.5 128t180.5 46.5q72 0 134 -25.5t108.5 -71t71.5 -104.5l-127 -47q-17 37 -45 64.5t-64 43t-78 15.5q-61 0 -108.5 -30.5t-74 -83.5t-26.5 -123t27 -123.5t75 -84t110 -30.5q43 0 78.5 16.5t63 45.5t44.5 67
l127 -46q-25 -61 -71.5 -108t-108.5 -73t-135 -26zM453 761l-140 131v8h136l124 -139h-120zM188 761l124 139h136v-8l-140 -131h-120z" />
    <glyph glyph-name="ccircumflex" unicode="&#x109;" horiz-adv-x="546" 
d="M298 -12q-78 0 -139 33.5t-95 93t-34 135.5q0 77 34 136t94 92.5t138 33.5q75 0 137 -37t90 -107l-124 -44q-14 29 -43.5 46.5t-65.5 17.5q-37 0 -65 -17.5t-44 -48.5t-16 -72t16 -71.5t45 -48.5t66 -18q36 0 65.5 19t43.5 50l125 -44q-29 -71 -90.5 -110t-137.5 -39z
M365 573l-140 131v8h136l124 -139h-120zM100 573l124 139h136v-8l-140 -131h-120z" />
    <glyph glyph-name="Cdotaccent" unicode="&#x10a;" horiz-adv-x="725" 
d="M385 -12q-102 0 -181 46.5t-124 128t-45 187.5t45 187.5t123.5 128t180.5 46.5q72 0 134 -25.5t108.5 -71t71.5 -104.5l-127 -47q-17 37 -45 64.5t-64 43t-78 15.5q-61 0 -108.5 -30.5t-74 -83.5t-26.5 -123t27 -123.5t75 -84t110 -30.5q43 0 78.5 16.5t63 45.5t44.5 67
l127 -46q-25 -61 -71.5 -108t-108.5 -73t-135 -26zM384 769q-30 0 -53 22.5t-23 53.5t23 53.5t53 22.5q31 0 53.5 -22.5t22.5 -53.5t-22.5 -53.5t-53.5 -22.5z" />
    <glyph glyph-name="cdotaccent" unicode="&#x10b;" horiz-adv-x="546" 
d="M298 -12q-78 0 -139 33.5t-95 93t-34 135.5q0 77 34 136t94 92.5t138 33.5q75 0 137 -37t90 -107l-124 -44q-14 29 -43.5 46.5t-65.5 17.5q-37 0 -65 -17.5t-44 -48.5t-16 -72t16 -71.5t45 -48.5t66 -18q36 0 65.5 19t43.5 50l125 -44q-29 -71 -90.5 -110t-137.5 -39z
M296 581q-30 0 -53 22.5t-23 53.5t23 53.5t53 22.5q31 0 53.5 -22.5t22.5 -53.5t-22.5 -53.5t-53.5 -22.5z" />
    <glyph glyph-name="Ccaron" unicode="&#x10c;" horiz-adv-x="725" 
d="M385 -12q-102 0 -181 46.5t-124 128t-45 187.5t45 187.5t123.5 128t180.5 46.5q72 0 134 -25.5t108.5 -71t71.5 -104.5l-127 -47q-17 37 -45 64.5t-64 43t-78 15.5q-61 0 -108.5 -30.5t-74 -83.5t-26.5 -123t27 -123.5t75 -84t110 -30.5q43 0 78.5 16.5t63 45.5t44.5 67
l127 -46q-25 -61 -71.5 -108t-108.5 -73t-135 -26zM321 750v3l131 135h121l-124 -138h-128zM312 750l-124 138h121l131 -135v-3h-128z" />
    <glyph glyph-name="ccaron" unicode="&#x10d;" horiz-adv-x="546" 
d="M298 -12q-78 0 -139 33.5t-95 93t-34 135.5q0 77 34 136t94 92.5t138 33.5q75 0 137 -37t90 -107l-124 -44q-14 29 -43.5 46.5t-65.5 17.5q-37 0 -65 -17.5t-44 -48.5t-16 -72t16 -71.5t45 -48.5t66 -18q36 0 65.5 19t43.5 50l125 -44q-29 -71 -90.5 -110t-137.5 -39z
M233 562v3l131 135h121l-124 -138h-128zM224 562l-124 138h121l131 -135v-3h-128z" />
    <glyph glyph-name="Dcaron" unicode="&#x10e;" horiz-adv-x="700" 
d="M76 0v700h224q107 0 189.5 -45t129 -123.5t46.5 -181.5q0 -102 -46.5 -181t-129 -124t-189.5 -45h-224zM213 128h87q48 0 89 17t71.5 47t47.5 70.5t17 87.5t-17 87.5t-47.5 70.5t-71.5 47t-89 17h-87v-444zM242 750v3l131 135h121l-124 -138h-128zM233 750l-124 138h121
l131 -135v-3h-128z" />
    <glyph glyph-name="dcaron" unicode="&#x10f;" horiz-adv-x="595" 
d="M256 -12q-69 0 -119.5 32t-78.5 91t-28 139q0 81 28 139.5t78.5 90.5t119.5 32q49 0 87.5 -20.5t62.5 -58.5v267h132v-700h-125l-4 70q-25 -39 -64 -60.5t-89 -21.5zM290 109q33 0 58.5 16.5t40.5 46.5t17 68v20q-2 38 -17 67.5t-41 46t-59 16.5q-36 0 -63.5 -17.5
t-43 -49.5t-15.5 -73t16 -73t43.5 -50t63.5 -18zM557 542l36 158h118l-53 -158h-101z" />
    <glyph glyph-name="Dcroat" unicode="&#x110;" horiz-adv-x="746" 
d="M56 300v100h329v-100h-329zM122 0v700h224q107 0 189.5 -45t129 -123.5t46.5 -181.5q0 -102 -46.5 -181t-129 -124t-189.5 -45h-224zM259 128h87q48 0 89 17t71.5 47t47.5 70.5t17 87.5t-17 87.5t-47.5 70.5t-71.5 47t-89 17h-87v-444z" />
    <glyph glyph-name="dcroat" unicode="&#x111;" horiz-adv-x="595" 
d="M268 555v85h335v-85h-335zM256 -12q-69 0 -119.5 32t-78.5 91t-28 139q0 81 28 139.5t78.5 90.5t119.5 32q49 0 87.5 -20.5t62.5 -58.5v267h132v-700h-125l-4 70q-25 -39 -64 -60.5t-89 -21.5zM290 109q33 0 58.5 16.5t40.5 46.5t17 68v20q-2 38 -17 67.5t-41 46
t-59 16.5q-36 0 -63.5 -17.5t-43 -49.5t-15.5 -73t16 -73t43.5 -50t63.5 -18z" />
    <glyph glyph-name="Emacron" unicode="&#x112;" horiz-adv-x="589" 
d="M76 0v700h443v-125h-306v-159h264v-122h-264v-169h310v-125h-447zM134 749v114h324v-114h-324z" />
    <glyph glyph-name="emacron" unicode="&#x113;" horiz-adv-x="557" 
d="M283 -12q-74 0 -131 33.5t-89.5 92.5t-32.5 136t33.5 136t92 92.5t134.5 33.5q66 0 121.5 -34.5t89 -101t33.5 -161.5h-366q5 -50 43 -79.5t86 -29.5q41 0 67 17.5t40 45.5l118 -46q-21 -42 -54.5 -72.5t-79.5 -46.5t-105 -16zM175 313h216q-3 31 -20 50t-40 28t-45 9
q-21 0 -45.5 -8.5t-43 -27.5t-22.5 -51zM129 561v114h324v-114h-324z" />
    <glyph glyph-name="Edotaccent" unicode="&#x116;" horiz-adv-x="589" 
d="M76 0v700h443v-125h-306v-159h264v-122h-264v-169h310v-125h-447zM296 769q-30 0 -53 22.5t-23 53.5t23 53.5t53 22.5q31 0 53.5 -22.5t22.5 -53.5t-22.5 -53.5t-53.5 -22.5z" />
    <glyph glyph-name="edotaccent" unicode="&#x117;" horiz-adv-x="557" 
d="M283 -12q-74 0 -131 33.5t-89.5 92.5t-32.5 136t33.5 136t92 92.5t134.5 33.5q66 0 121.5 -34.5t89 -101t33.5 -161.5h-366q5 -50 43 -79.5t86 -29.5q41 0 67 17.5t40 45.5l118 -46q-21 -42 -54.5 -72.5t-79.5 -46.5t-105 -16zM175 313h216q-3 31 -20 50t-40 28t-45 9
q-21 0 -45.5 -8.5t-43 -27.5t-22.5 -51zM291 581q-30 0 -53 22.5t-23 53.5t23 53.5t53 22.5q31 0 53.5 -22.5t22.5 -53.5t-22.5 -53.5t-53.5 -22.5z" />
    <glyph glyph-name="Eogonek" unicode="&#x118;" horiz-adv-x="589" 
d="M76 0v700h443v-125h-306v-159h264v-122h-264v-169h310v-125h-447zM479 -212q-38 0 -69 12.5t-49 36.5t-18 61q0 32 23 60t54 47l102 -5q-30 -21 -51 -45.5t-21 -49.5q0 -11 7.5 -18t19.5 -7q13 0 22.5 3t14.5 6l39 -83q-15 -9 -33 -13.5t-41 -4.5z" />
    <glyph glyph-name="eogonek" unicode="&#x119;" horiz-adv-x="557" 
d="M283 -12q-74 0 -131 33.5t-89.5 92.5t-32.5 136t33.5 136t92 92.5t134.5 33.5q66 0 121.5 -34.5t89 -101t33.5 -161.5h-366q5 -50 43 -79.5t86 -29.5q41 0 67 17.5t40 45.5l118 -46q-21 -42 -54.5 -72.5t-79.5 -46.5t-105 -16zM175 313h216q-3 31 -20 50t-40 28t-45 9
q-21 0 -45.5 -8.5t-43 -27.5t-22.5 -51zM463 -205q-43 0 -78 11.5t-55 33.5t-20 55q0 34 19 62t52 52t74 48l24 -1q-28 -26 -42.5 -48.5t-19.5 -42t-5 -38.5t11 -29.5t30 -10.5q15 0 27.5 2t22.5 6l39 -82q-17 -10 -36.5 -14t-42.5 -4z" />
    <glyph glyph-name="Ecaron" unicode="&#x11a;" horiz-adv-x="589" 
d="M76 0v700h443v-125h-306v-159h264v-122h-264v-169h310v-125h-447zM233 750v3l131 135h121l-124 -138h-128zM224 750l-124 138h121l131 -135v-3h-128z" />
    <glyph glyph-name="ecaron" unicode="&#x11b;" horiz-adv-x="557" 
d="M283 -12q-74 0 -131 33.5t-89.5 92.5t-32.5 136t33.5 136t92 92.5t134.5 33.5q66 0 121.5 -34.5t89 -101t33.5 -161.5h-366q5 -50 43 -79.5t86 -29.5q41 0 67 17.5t40 45.5l118 -46q-21 -42 -54.5 -72.5t-79.5 -46.5t-105 -16zM175 313h216q-3 31 -20 50t-40 28t-45 9
q-21 0 -45.5 -8.5t-43 -27.5t-22.5 -51zM228 562v3l131 135h121l-124 -138h-128zM219 562l-124 138h121l131 -135v-3h-128z" />
    <glyph glyph-name="Gcircumflex" unicode="&#x11c;" horiz-adv-x="743" 
d="M401 -12q-107 0 -189.5 46.5t-129.5 128t-47 187.5t47 187.5t129.5 128t189.5 46.5q64 0 118 -19t95.5 -52.5t69.5 -76.5l-112 -70q-17 27 -44.5 48t-60.5 33t-66 12q-66 0 -117 -30.5t-80 -83.5t-29 -123q0 -69 28.5 -123t80.5 -84.5t120 -30.5q51 0 91 19.5t64 54.5
t27 82h-162v107h294v-85q-2 -96 -43 -163.5t-112 -103t-162 -35.5zM460 761l-140 131v8h136l124 -139h-120zM195 761l124 139h136v-8l-140 -131h-120z" />
    <glyph glyph-name="gcircumflex" unicode="&#x11d;" horiz-adv-x="601" 
d="M282 -213q-57 0 -101 8t-74 21t-49 26l52 106q14 -8 37 -18.5t55 -18t74 -7.5q40 0 70.5 15.5t48 48t17.5 82.5v48q-25 -39 -65 -61.5t-91 -22.5q-69 0 -119.5 30t-78.5 84t-28 128q0 78 28 135.5t78.5 89t119.5 31.5q51 0 91 -23.5t65 -66.5v78h132v-446
q0 -84 -32 -144.5t-90.5 -91.5t-139.5 -31zM294 125q34 0 59.5 17.5t39.5 48t14 69.5q0 40 -14.5 70t-40 47t-59.5 17q-35 0 -62 -17t-42 -47t-16 -70q1 -39 16 -69.5t42.5 -48t62.5 -17.5zM360 573l-140 131v8h136l124 -139h-120zM95 573l124 139h136v-8l-140 -131h-120z
" />
    <glyph glyph-name="Gbreve" unicode="&#x11e;" horiz-adv-x="743" 
d="M401 -12q-107 0 -189.5 46.5t-129.5 128t-47 187.5t47 187.5t129.5 128t189.5 46.5q64 0 118 -19t95.5 -52.5t69.5 -76.5l-112 -70q-17 27 -44.5 48t-60.5 33t-66 12q-66 0 -117 -30.5t-80 -83.5t-29 -123q0 -69 28.5 -123t80.5 -84.5t120 -30.5q51 0 91 19.5t64 54.5
t27 82h-162v107h294v-85q-2 -96 -43 -163.5t-112 -103t-162 -35.5zM390 753q-54 0 -96.5 18.5t-66.5 52t-24 76.5h122q0 -24 18.5 -39t46.5 -15t46 15t18 39h122q0 -43 -24 -76.5t-65.5 -52t-96.5 -18.5z" />
    <glyph glyph-name="gbreve" unicode="&#x11f;" horiz-adv-x="601" 
d="M282 -213q-57 0 -101 8t-74 21t-49 26l52 106q14 -8 37 -18.5t55 -18t74 -7.5q40 0 70.5 15.5t48 48t17.5 82.5v48q-25 -39 -65 -61.5t-91 -22.5q-69 0 -119.5 30t-78.5 84t-28 128q0 78 28 135.5t78.5 89t119.5 31.5q51 0 91 -23.5t65 -66.5v78h132v-446
q0 -84 -32 -144.5t-90.5 -91.5t-139.5 -31zM294 125q34 0 59.5 17.5t39.5 48t14 69.5q0 40 -14.5 70t-40 47t-59.5 17q-35 0 -62 -17t-42 -47t-16 -70q1 -39 16 -69.5t42.5 -48t62.5 -17.5zM292 553q-54 0 -96.5 18.5t-66.5 52t-24 76.5h122q0 -24 18.5 -39t46.5 -15t46 15
t18 39h122q0 -43 -24 -76.5t-65.5 -52t-96.5 -18.5z" />
    <glyph glyph-name="Gdotaccent" unicode="&#x120;" horiz-adv-x="743" 
d="M401 -12q-107 0 -189.5 46.5t-129.5 128t-47 187.5t47 187.5t129.5 128t189.5 46.5q64 0 118 -19t95.5 -52.5t69.5 -76.5l-112 -70q-17 27 -44.5 48t-60.5 33t-66 12q-66 0 -117 -30.5t-80 -83.5t-29 -123q0 -69 28.5 -123t80.5 -84.5t120 -30.5q51 0 91 19.5t64 54.5
t27 82h-162v107h294v-85q-2 -96 -43 -163.5t-112 -103t-162 -35.5zM389 781q-30 0 -53 22.5t-23 53.5t23 53.5t53 22.5q31 0 53.5 -22.5t22.5 -53.5t-22.5 -53.5t-53.5 -22.5z" />
    <glyph glyph-name="gdotaccent" unicode="&#x121;" horiz-adv-x="601" 
d="M282 -213q-57 0 -101 8t-74 21t-49 26l52 106q14 -8 37 -18.5t55 -18t74 -7.5q40 0 70.5 15.5t48 48t17.5 82.5v48q-25 -39 -65 -61.5t-91 -22.5q-69 0 -119.5 30t-78.5 84t-28 128q0 78 28 135.5t78.5 89t119.5 31.5q51 0 91 -23.5t65 -66.5v78h132v-446
q0 -84 -32 -144.5t-90.5 -91.5t-139.5 -31zM294 125q34 0 59.5 17.5t39.5 48t14 69.5q0 40 -14.5 70t-40 47t-59.5 17q-35 0 -62 -17t-42 -47t-16 -70q1 -39 16 -69.5t42.5 -48t62.5 -17.5zM291 581q-30 0 -53 22.5t-23 53.5t23 53.5t53 22.5q31 0 53.5 -22.5t22.5 -53.5
t-22.5 -53.5t-53.5 -22.5z" />
    <glyph glyph-name="uni0122" unicode="&#x122;" horiz-adv-x="743" 
d="M401 -12q-107 0 -189.5 46.5t-129.5 128t-47 187.5t47 187.5t129.5 128t189.5 46.5q64 0 118 -19t95.5 -52.5t69.5 -76.5l-112 -70q-17 27 -44.5 48t-60.5 33t-66 12q-66 0 -117 -30.5t-80 -83.5t-29 -123q0 -69 28.5 -123t80.5 -84.5t120 -30.5q51 0 91 19.5t64 54.5
t27 82h-162v107h294v-85q-2 -96 -43 -163.5t-112 -103t-162 -35.5zM299 -200l46 150h129l-74 -150h-101z" />
    <glyph glyph-name="uni0123" unicode="&#x123;" horiz-adv-x="601" 
d="M282 -213q-57 0 -101 8t-74 21t-49 26l52 106q14 -8 37 -18.5t55 -18t74 -7.5q40 0 70.5 15.5t48 48t17.5 82.5v48q-25 -39 -65 -61.5t-91 -22.5q-69 0 -119.5 30t-78.5 84t-28 128q0 78 28 135.5t78.5 89t119.5 31.5q51 0 91 -23.5t65 -66.5v78h132v-446
q0 -84 -32 -144.5t-90.5 -91.5t-139.5 -31zM294 125q34 0 59.5 17.5t39.5 48t14 69.5q0 40 -14.5 70t-40 47t-59.5 17q-35 0 -62 -17t-42 -47t-16 -70q1 -39 16 -69.5t42.5 -48t62.5 -17.5zM414 713l-62 -141h-136l98 141h100z" />
    <glyph glyph-name="Hcircumflex" unicode="&#x124;" horiz-adv-x="750" 
d="M76 0v701h137v-280h324v279h137v-700h-137v295h-324v-295h-137zM448 762l-140 131v8h136l124 -139h-120zM183 762l124 139h136v-8l-140 -131h-120z" />
    <glyph glyph-name="hcircumflex" unicode="&#x125;" horiz-adv-x="570" 
d="M58 0v700h132v-264q25 37 62 56.5t83 19.5q60 0 101.5 -24t63.5 -74.5t22 -130.5v-283h-132v256q0 51 -12 79t-33 40.5t-49 12.5q-51 1 -78.5 -31t-27.5 -95v-262h-132zM192 773l-140 131v8h136l124 -139h-120zM-73 773l124 139h136v-8l-140 -131h-120z" />
    <glyph glyph-name="Hbar" unicode="&#x126;" horiz-adv-x="750" 
d="M5 502v100h740v-100h-740zM76 0v701h137v-280h324v279h137v-700h-137v295h-324v-295h-137z" />
    <glyph glyph-name="hbar" unicode="&#x127;" horiz-adv-x="570" 
d="M0 555v85h336v-85h-336zM58 0v700h132v-264q25 37 62 56.5t83 19.5q60 0 101.5 -24t63.5 -74.5t22 -130.5v-283h-132v256q0 51 -12 79t-33 40.5t-49 12.5q-51 1 -78.5 -31t-27.5 -95v-262h-132z" />
    <glyph glyph-name="Imacron" unicode="&#x12a;" horiz-adv-x="289" 
d="M76 0v700h137v-700h-137zM-16 749v114h324v-114h-324z" />
    <glyph glyph-name="imacron" unicode="&#x12b;" horiz-adv-x="262" 
d="M65 0v500h132v-500h-132zM-9 561v114h280v-114h-280z" />
    <glyph glyph-name="Iogonek" unicode="&#x12e;" horiz-adv-x="289" 
d="M76 0v700h137v-700h-137zM169 -212q-38 0 -69 12.5t-49 36.5t-18 61q0 32 23 60t54 47l102 -5q-30 -21 -51 -45.5t-21 -49.5q0 -11 7.5 -18t19.5 -7q13 0 22.5 3t14.5 6l39 -83q-15 -9 -33 -13.5t-41 -4.5z" />
    <glyph glyph-name="iogonek" unicode="&#x12f;" horiz-adv-x="262" 
d="M65 0v500h132v-500h-132zM131 581q-30 0 -53 22.5t-23 53.5t23 53.5t53 22.5q31 0 53.5 -22.5t22.5 -53.5t-22.5 -53.5t-53.5 -22.5zM153 -212q-38 0 -69 12.5t-49 36.5t-18 61q0 32 23 60t54 47l102 -5q-30 -21 -51 -45.5t-21 -49.5q0 -11 7.5 -18t19.5 -7q13 0 22.5 3
t14.5 6l39 -83q-15 -9 -33 -13.5t-41 -4.5z" />
    <glyph glyph-name="Idotaccent" unicode="&#x130;" horiz-adv-x="289" 
d="M76 0v700h137v-700h-137zM146 769q-30 0 -53 22.5t-23 53.5t23 53.5t53 22.5q31 0 53.5 -22.5t22.5 -53.5t-22.5 -53.5t-53.5 -22.5z" />
    <glyph glyph-name="dotlessi" unicode="&#x131;" horiz-adv-x="262" 
d="M65 0v500h132v-500h-132z" />
    <glyph glyph-name="IJ" unicode="&#x132;" horiz-adv-x="841" 
d="M76 0v700h137v-700h-137zM520 -14q-51 0 -90.5 16.5t-67 42.5t-43.5 56t-22 58l116 44q16 -44 42.5 -68t66.5 -24q30 0 57 14t43.5 45t16.5 80v450h136v-490q0 -52 -19 -93.5t-53.5 -70.5t-81 -44.5t-101.5 -15.5z" />
    <glyph glyph-name="ij" unicode="&#x133;" horiz-adv-x="553" 
d="M65 0v500h132v-500h-132zM131 581q-30 0 -53 22.5t-23 53.5t23 53.5t53 22.5q31 0 53.5 -22.5t22.5 -53.5t-22.5 -53.5t-53.5 -22.5zM420 578q-32 0 -55 23t-23 55t23 55t55 23t55 -23t23 -55t-23 -55t-55 -23zM309 -215q-57 0 -109 31l53 109q16 -8 29.5 -12.5
t23.5 -4.5q48 0 48 63v529h132v-538q0 -85 -46 -131t-131 -46z" />
    <glyph glyph-name="Jcircumflex" unicode="&#x134;" horiz-adv-x="552" 
d="M231 -14q-51 0 -90.5 16.5t-67 42.5t-43.5 56t-22 58l116 44q16 -44 42.5 -68t66.5 -24q30 0 57 14t43.5 45t16.5 80v450h136v-490q0 -52 -19 -93.5t-53.5 -70.5t-81 -44.5t-101.5 -15.5zM478 763l-140 131v8h136l124 -139h-120zM213 763l124 139h136v-8l-140 -131h-120z
" />
    <glyph glyph-name="jcircumflex" unicode="&#x135;" horiz-adv-x="279" 
d="M47 -215q-57 0 -109 31l53 109q16 -8 29.5 -12.5t23.5 -4.5q48 0 48 63v529h132v-538q0 -85 -46 -131t-131 -46zM227 573l-140 131v8h136l124 -139h-120zM-38 573l124 139h136v-8l-140 -131h-120z" />
    <glyph glyph-name="uni0136" unicode="&#x136;" horiz-adv-x="666" 
d="M76 0v700h135v-276l259 276h177l-296 -316l307 -384h-169l-227 288l-51 -54v-234h-135zM231 -200l46 150h129l-74 -150h-101z" />
    <glyph glyph-name="uni0137" unicode="&#x137;" horiz-adv-x="538" 
d="M57 0v700h132v-386l171 186h157l-189 -211l204 -289h-155l-133 194l-55 -60v-134h-132zM166 -200l46 150h129l-74 -150h-101z" />
    <glyph glyph-name="Lacute" unicode="&#x139;" horiz-adv-x="537" 
d="M76 0v700h137v-575h308v-125h-445zM60 750l114 138h148l-129 -138h-133z" />
    <glyph glyph-name="lacute" unicode="&#x13a;" horiz-adv-x="246" 
d="M57 0v700h132v-700h-132zM39 750l114 138h148l-129 -138h-133z" />
    <glyph glyph-name="uni013B" unicode="&#x13b;" horiz-adv-x="537" 
d="M76 0v700h137v-575h308v-125h-445zM183 -200l46 150h129l-74 -150h-101z" />
    <glyph glyph-name="uni013C" unicode="&#x13c;" horiz-adv-x="246" 
d="M57 0v700h132v-700h-132zM21 -200l46 150h129l-74 -150h-101z" />
    <glyph glyph-name="Lcaron" unicode="&#x13d;" horiz-adv-x="537" 
d="M76 0v700h137v-575h308v-125h-445zM254 601l36 158h118l-53 -158h-101z" />
    <glyph glyph-name="lcaron" unicode="&#x13e;" horiz-adv-x="246" 
d="M57 0v700h132v-700h-132zM209 542l36 158h118l-53 -158h-101z" />
    <glyph glyph-name="Lslash" unicode="&#x141;" horiz-adv-x="537" 
d="M2 239v112l311 158v-112zM76 0v700h137v-575h308v-125h-445z" />
    <glyph glyph-name="lslash" unicode="&#x142;" horiz-adv-x="286" 
d="M8 230v106l270 138v-106zM77 0v700h132v-700h-132z" />
    <glyph glyph-name="Nacute" unicode="&#x143;" horiz-adv-x="773" 
d="M76 0v700h143l342 -470v470h136v-700h-136l-348 479v-479h-137zM300 738l114 138h148l-129 -138h-133z" />
    <glyph glyph-name="nacute" unicode="&#x144;" horiz-adv-x="568" 
d="M57 0v500h124l6 -68q24 39 61.5 59.5t85.5 20.5q59 0 101 -24t64 -74.5t21 -130.5v-283h-132v256q0 51 -11.5 79t-32.5 40.5t-49 12.5q-51 1 -78.5 -31t-27.5 -95v-262h-132zM197 562l114 138h148l-129 -138h-133z" />
    <glyph glyph-name="uni0145" unicode="&#x145;" horiz-adv-x="773" 
d="M76 0v700h143l342 -470v470h136v-700h-136l-348 479v-479h-137zM286 -200l46 150h129l-74 -150h-101z" />
    <glyph glyph-name="uni0146" unicode="&#x146;" horiz-adv-x="568" 
d="M57 0v500h124l6 -68q24 39 61.5 59.5t85.5 20.5q59 0 101 -24t64 -74.5t21 -130.5v-283h-132v256q0 51 -11.5 79t-32.5 40.5t-49 12.5q-51 1 -78.5 -31t-27.5 -95v-262h-132zM179 -200l46 150h129l-74 -150h-101z" />
    <glyph glyph-name="Ncaron" unicode="&#x147;" horiz-adv-x="773" 
d="M76 0v700h143l342 -470v470h136v-700h-136l-348 479v-479h-137zM322 738v3l131 135h121l-124 -138h-128zM313 738l-124 138h121l131 -135v-3h-128z" />
    <glyph glyph-name="ncaron" unicode="&#x148;" horiz-adv-x="568" 
d="M57 0v500h124l6 -68q24 39 61.5 59.5t85.5 20.5q59 0 101 -24t64 -74.5t21 -130.5v-283h-132v256q0 51 -11.5 79t-32.5 40.5t-49 12.5q-51 1 -78.5 -31t-27.5 -95v-262h-132zM218 562v3l131 135h121l-124 -138h-128zM209 562l-124 138h121l131 -135v-3h-128z" />
    <glyph glyph-name="Eng" unicode="&#x14a;" horiz-adv-x="773" 
d="M519 -214q-58 0 -110 31l53 110q16 -9 29.5 -13.5t23.5 -4.5q47 0 47 63v229h135v-238q0 -85 -46 -131t-132 -46zM76 0v700h143l342 -470v470h136v-700h-136l-348 479v-479h-137z" />
    <glyph glyph-name="eng" unicode="&#x14b;" horiz-adv-x="568" 
d="M343 -215q-56 0 -108 31l53 109q16 -8 29.5 -12.5t23.5 -4.5q47 0 47 63v285q0 51 -11.5 79t-32.5 40.5t-49 12.5q-51 1 -78.5 -31t-27.5 -95v-262h-132v500h124l6 -68q24 39 61.5 59.5t85.5 20.5q59 0 101 -24t64 -74.5t21 -130.5v-321q0 -85 -45.5 -131t-131.5 -46z
" />
    <glyph glyph-name="Omacron" unicode="&#x14c;" horiz-adv-x="787" 
d="M396 -12q-106 0 -187.5 46.5t-127.5 128t-46 186.5q0 107 46 188.5t126.5 127.5t185.5 46q106 0 186.5 -46.5t126.5 -128t46 -187.5q0 -105 -45.5 -186.5t-126 -128t-184.5 -46.5zM396 113q64 0 112.5 30.5t76 83.5t27.5 122q0 70 -28 123t-77 83.5t-114 30.5
q-63 0 -112.5 -30.5t-77.5 -83.5t-28 -123q0 -69 28 -122t78 -83.5t115 -30.5zM199 749v114h388v-114h-388z" />
    <glyph glyph-name="omacron" unicode="&#x14d;" horiz-adv-x="581" 
d="M292 -12q-76 0 -135.5 33.5t-93 92.5t-33.5 136t33 136t92 92.5t135 33.5q77 0 136 -33.5t92 -92.5t33 -136t-33 -136t-91.5 -92.5t-134.5 -33.5zM292 110q37 0 65 18t43.5 49.5t15.5 72.5t-16 72.5t-44.5 49.5t-65.5 18q-36 0 -64.5 -18t-44.5 -49.5t-16 -72.5t16 -72.5
t45 -49.5t66 -18zM126 561v114h324v-114h-324z" />
    <glyph glyph-name="Ohungarumlaut" unicode="&#x150;" horiz-adv-x="787" 
d="M396 -12q-106 0 -187.5 46.5t-127.5 128t-46 186.5q0 107 46 188.5t126.5 127.5t185.5 46q106 0 186.5 -46.5t126.5 -128t46 -187.5q0 -105 -45.5 -186.5t-126 -128t-184.5 -46.5zM396 113q64 0 112.5 30.5t76 83.5t27.5 122q0 70 -28 123t-77 83.5t-114 30.5
q-63 0 -112.5 -30.5t-77.5 -83.5t-28 -123q0 -69 28 -122t78 -83.5t115 -30.5zM431 750l100 138h138l-117 -138h-121zM225 750l98 138h137l-115 -138h-120z" />
    <glyph glyph-name="ohungarumlaut" unicode="&#x151;" horiz-adv-x="581" 
d="M292 -12q-76 0 -135.5 33.5t-93 92.5t-33.5 136t33 136t92 92.5t135 33.5q77 0 136 -33.5t92 -92.5t33 -136t-33 -136t-91.5 -92.5t-134.5 -33.5zM292 110q37 0 65 18t43.5 49.5t15.5 72.5t-16 72.5t-44.5 49.5t-65.5 18q-36 0 -64.5 -18t-44.5 -49.5t-16 -72.5t16 -72.5
t45 -49.5t66 -18zM325 562l100 138h138l-117 -138h-121zM119 562l98 138h137l-115 -138h-120z" />
    <glyph glyph-name="OE" unicode="&#x152;" horiz-adv-x="1114" 
d="M396 -14q-106 0 -187.5 46.5t-127.5 128.5t-46 189q0 106 46 188t126.5 128.5t185.5 46.5q95 0 167.5 -44.5t113.5 -125.5t41 -191q0 -111 -41 -193t-113 -127.5t-165 -45.5zM396 115q60 0 106.5 28.5t72.5 81t26 125.5q0 72 -26.5 125t-73.5 81.5t-108 28.5
q-63 0 -111.5 -30t-76 -83.5t-27.5 -121.5q0 -69 27.5 -122t77 -83t113.5 -30zM601 0v700h442v-125h-306v-159h264v-122h-264v-169h311v-125h-447z" />
    <glyph glyph-name="oe" unicode="&#x153;" horiz-adv-x="998" 
d="M292 -12q-76 0 -135.5 33.5t-93 92.5t-33.5 136t33 136t92 92.5t135 33.5q77 0 136 -33.5t92 -92.5t33 -136t-33 -136t-91.5 -92.5t-134.5 -33.5zM292 110q37 0 65 18t43.5 49.5t15.5 72.5t-16 72.5t-44.5 49.5t-65.5 18q-36 0 -64.5 -18t-44.5 -49.5t-16 -72.5t16 -72.5
t45 -49.5t66 -18zM724 -12q-74 0 -131 33.5t-89.5 92.5t-32.5 136t33.5 136t92 92.5t134.5 33.5q66 0 121.5 -34.5t89 -101t33.5 -161.5h-366q5 -50 43 -79.5t86 -29.5q41 0 67 17.5t40 45.5l118 -46q-21 -42 -54.5 -72.5t-79.5 -46.5t-105 -16zM616 313h216q-3 31 -20 50
t-40 28t-45 9q-21 0 -45.5 -8.5t-43 -27.5t-22.5 -51z" />
    <glyph glyph-name="Racute" unicode="&#x154;" horiz-adv-x="645" 
d="M76 0v700h260q74 0 131 -29t89 -79.5t32 -117.5q0 -69 -37 -121.5t-97 -79.5l162 -273h-155l-143 248h-12.5h-13.5h-79v-248h-137zM213 373h124q31 0 55.5 13t39 36t14.5 52q0 45 -32.5 73t-83.5 28h-117v-202zM211 750l114 138h148l-129 -138h-133z" />
    <glyph glyph-name="racute" unicode="&#x155;" horiz-adv-x="379" 
d="M57 0v500h132v-92q31 47 78.5 70.5t98.5 23.5v-128q-46 0 -86.5 -11t-65.5 -36t-25 -64v-263h-132zM90 562l114 138h148l-129 -138h-133z" />
    <glyph glyph-name="uni0156" unicode="&#x156;" horiz-adv-x="645" 
d="M76 0v700h260q74 0 131 -29t89 -79.5t32 -117.5q0 -69 -37 -121.5t-97 -79.5l162 -273h-155l-143 248h-12.5h-13.5h-79v-248h-137zM213 373h124q31 0 55.5 13t39 36t14.5 52q0 45 -32.5 73t-83.5 28h-117v-202zM220 -200l46 150h129l-74 -150h-101z" />
    <glyph glyph-name="uni0157" unicode="&#x157;" horiz-adv-x="379" 
d="M57 0v500h132v-92q31 47 78.5 70.5t98.5 23.5v-128q-46 0 -86.5 -11t-65.5 -36t-25 -64v-263h-132zM47 -200l46 150h129l-74 -150h-101z" />
    <glyph glyph-name="Rcaron" unicode="&#x158;" horiz-adv-x="645" 
d="M76 0v700h260q74 0 131 -29t89 -79.5t32 -117.5q0 -69 -37 -121.5t-97 -79.5l162 -273h-155l-143 248h-12.5h-13.5h-79v-248h-137zM213 373h124q31 0 55.5 13t39 36t14.5 52q0 45 -32.5 73t-83.5 28h-117v-202zM233 750v3l131 135h121l-124 -138h-128zM224 750l-124 138
h121l131 -135v-3h-128z" />
    <glyph glyph-name="rcaron" unicode="&#x159;" horiz-adv-x="379" 
d="M57 0v500h132v-92q31 47 78.5 70.5t98.5 23.5v-128q-46 0 -86.5 -11t-65.5 -36t-25 -64v-263h-132zM112 562v3l131 135h121l-124 -138h-128zM103 562l-124 138h121l131 -135v-3h-128z" />
    <glyph glyph-name="Sacute" unicode="&#x15a;" horiz-adv-x="607" 
d="M311 -12q-53 0 -99 13t-82 36.5t-59.5 52.5t-30.5 61l134 40q13 -34 46 -58.5t83 -25.5q53 -1 86.5 23t33.5 62q0 33 -26.5 55.5t-72.5 34.5l-91 24q-51 13 -90 39.5t-61 65.5t-22 91q0 99 65.5 154.5t185.5 55.5q67 0 117.5 -19.5t84.5 -55.5t52 -85l-133 -41
q-12 34 -44 58t-81 24q-50 0 -78.5 -23t-28.5 -65q0 -33 22.5 -52t61.5 -29l92 -23q90 -22 140 -79t50 -127q0 -62 -30 -108.5t-87 -72.5t-138 -26zM227 750l114 138h148l-129 -138h-133z" />
    <glyph glyph-name="sacute" unicode="&#x15b;" horiz-adv-x="481" 
d="M244 -12q-48 0 -90 14.5t-74 42t-50 67.5l113 52q15 -24 41 -41.5t60 -17.5q33 0 51 9.5t18 27.5t-14.5 26.5t-39.5 14.5l-46 12q-72 19 -113.5 60.5t-41.5 95.5q0 77 49.5 119t140.5 42q47 0 87.5 -14t69.5 -39t40 -58l-109 -50q-7 20 -34 32.5t-54 12.5t-41.5 -11.5
t-14.5 -31.5q0 -13 14 -21.5t40 -14.5l65 -16q49 -12 78.5 -38.5t43 -59t13.5 -63.5q0 -45 -26.5 -79.5t-72 -53.5t-103.5 -19zM163 562l114 138h148l-129 -138h-133z" />
    <glyph glyph-name="Scircumflex" unicode="&#x15c;" horiz-adv-x="607" 
d="M311 -12q-53 0 -99 13t-82 36.5t-59.5 52.5t-30.5 61l134 40q13 -34 46 -58.5t83 -25.5q53 -1 86.5 23t33.5 62q0 33 -26.5 55.5t-72.5 34.5l-91 24q-51 13 -90 39.5t-61 65.5t-22 91q0 99 65.5 154.5t185.5 55.5q67 0 117.5 -19.5t84.5 -55.5t52 -85l-133 -41
q-12 34 -44 58t-81 24q-50 0 -78.5 -23t-28.5 -65q0 -33 22.5 -52t61.5 -29l92 -23q90 -22 140 -79t50 -127q0 -62 -30 -108.5t-87 -72.5t-138 -26zM380 761l-140 131v8h136l124 -139h-120zM115 761l124 139h136v-8l-140 -131h-120z" />
    <glyph glyph-name="scircumflex" unicode="&#x15d;" horiz-adv-x="481" 
d="M244 -12q-48 0 -90 14.5t-74 42t-50 67.5l113 52q15 -24 41 -41.5t60 -17.5q33 0 51 9.5t18 27.5t-14.5 26.5t-39.5 14.5l-46 12q-72 19 -113.5 60.5t-41.5 95.5q0 77 49.5 119t140.5 42q47 0 87.5 -14t69.5 -39t40 -58l-109 -50q-7 20 -34 32.5t-54 12.5t-41.5 -11.5
t-14.5 -31.5q0 -13 14 -21.5t40 -14.5l65 -16q49 -12 78.5 -38.5t43 -59t13.5 -63.5q0 -45 -26.5 -79.5t-72 -53.5t-103.5 -19zM316 573l-140 131v8h136l124 -139h-120zM51 573l124 139h136v-8l-140 -131h-120z" />
    <glyph glyph-name="Scedilla" unicode="&#x15e;" horiz-adv-x="607" 
d="M311 -12q-53 0 -99 13t-82 36.5t-59.5 52.5t-30.5 61l134 40q13 -34 46 -58.5t83 -25.5q53 -1 86.5 23t33.5 62q0 33 -26.5 55.5t-72.5 34.5l-91 24q-51 13 -90 39.5t-61 65.5t-22 91q0 99 65.5 154.5t185.5 55.5q67 0 117.5 -19.5t84.5 -55.5t52 -85l-133 -41
q-12 34 -44 58t-81 24q-50 0 -78.5 -23t-28.5 -65q0 -33 22.5 -52t61.5 -29l92 -23q90 -22 140 -79t50 -127q0 -62 -30 -108.5t-87 -72.5t-138 -26zM268 -210q-22 0 -46 7t-50 22l20 63q15 -8 29.5 -13t26.5 -5q17 0 29 6t12 21q0 20 -16.5 30t-48.5 12l30 73l76 -6l-13 -29
q35 -12 52.5 -34.5t17.5 -49.5q0 -43 -30 -70t-89 -27z" />
    <glyph glyph-name="scedilla" unicode="&#x15f;" horiz-adv-x="481" 
d="M244 -12q-48 0 -90 14.5t-74 42t-50 67.5l113 52q15 -24 41 -41.5t60 -17.5q33 0 51 9.5t18 27.5t-14.5 26.5t-39.5 14.5l-46 12q-72 19 -113.5 60.5t-41.5 95.5q0 77 49.5 119t140.5 42q47 0 87.5 -14t69.5 -39t40 -58l-109 -50q-7 20 -34 32.5t-54 12.5t-41.5 -11.5
t-14.5 -31.5q0 -13 14 -21.5t40 -14.5l65 -16q49 -12 78.5 -38.5t43 -59t13.5 -63.5q0 -45 -26.5 -79.5t-72 -53.5t-103.5 -19zM202 -209q-22 0 -46 7t-50 22l20 63q15 -8 29.5 -13t26.5 -5q17 0 29 6t12 21q0 20 -16.5 30t-48.5 12l30 73l76 -6l-13 -29q35 -12 52.5 -34.5
t17.5 -49.5q0 -43 -30 -70t-89 -27z" />
    <glyph glyph-name="Scaron" unicode="&#x160;" horiz-adv-x="607" 
d="M311 -12q-53 0 -99 13t-82 36.5t-59.5 52.5t-30.5 61l134 40q13 -34 46 -58.5t83 -25.5q53 -1 86.5 23t33.5 62q0 33 -26.5 55.5t-72.5 34.5l-91 24q-51 13 -90 39.5t-61 65.5t-22 91q0 99 65.5 154.5t185.5 55.5q67 0 117.5 -19.5t84.5 -55.5t52 -85l-133 -41
q-12 34 -44 58t-81 24q-50 0 -78.5 -23t-28.5 -65q0 -33 22.5 -52t61.5 -29l92 -23q90 -22 140 -79t50 -127q0 -62 -30 -108.5t-87 -72.5t-138 -26zM248 750v3l131 135h121l-124 -138h-128zM239 750l-124 138h121l131 -135v-3h-128z" />
    <glyph glyph-name="scaron" unicode="&#x161;" horiz-adv-x="481" 
d="M244 -12q-48 0 -90 14.5t-74 42t-50 67.5l113 52q15 -24 41 -41.5t60 -17.5q33 0 51 9.5t18 27.5t-14.5 26.5t-39.5 14.5l-46 12q-72 19 -113.5 60.5t-41.5 95.5q0 77 49.5 119t140.5 42q47 0 87.5 -14t69.5 -39t40 -58l-109 -50q-7 20 -34 32.5t-54 12.5t-41.5 -11.5
t-14.5 -31.5q0 -13 14 -21.5t40 -14.5l65 -16q49 -12 78.5 -38.5t43 -59t13.5 -63.5q0 -45 -26.5 -79.5t-72 -53.5t-103.5 -19zM184 562v3l131 135h121l-124 -138h-128zM175 562l-124 138h121l131 -135v-3h-128z" />
    <glyph glyph-name="Tcaron" unicode="&#x164;" horiz-adv-x="584" 
d="M224 0v575h-210v125h556v-125h-209v-575h-137zM229 750v3l131 135h121l-124 -138h-128zM220 750l-124 138h121l131 -135v-3h-128z" />
    <glyph glyph-name="tcaron" unicode="&#x165;" horiz-adv-x="420" 
d="M263 -12q-83 0 -125.5 41t-42.5 117v242h-81v112h81v156h132v-156h125v-112h-125v-213q0 -32 14 -48.5t41 -16.5q10 0 22 4.5t25 13.5l46 -99q-24 -18 -53.5 -29.5t-58.5 -11.5zM256 570l36 140h119l-54 -140h-101z" />
    <glyph glyph-name="Umacron" unicode="&#x16a;" horiz-adv-x="704" 
d="M350 -14q-87 0 -151 34t-98.5 95.5t-34.5 145.5v439h137v-439q0 -45 18.5 -78.5t52 -51.5t78.5 -18t78.5 18t52 51.5t18.5 78.5v439h137v-439q0 -84 -35.5 -145.5t-100 -95.5t-152.5 -34zM190 749v114h324v-114h-324z" />
    <glyph glyph-name="umacron" unicode="&#x16b;" horiz-adv-x="568" 
d="M235 -12q-60 0 -101.5 24t-63.5 74.5t-22 130.5v283h132v-256q0 -50 11.5 -78.5t33 -41t48.5 -12.5q52 -1 79 31.5t27 94.5v262h132v-500h-124l-5 68q-25 -38 -62.5 -59t-84.5 -21zM120 561v114h324v-114h-324z" />
    <glyph glyph-name="Ubreve" unicode="&#x16c;" horiz-adv-x="704" 
d="M350 -14q-87 0 -151 34t-98.5 95.5t-34.5 145.5v439h137v-439q0 -45 18.5 -78.5t52 -51.5t78.5 -18t78.5 18t52 51.5t18.5 78.5v439h137v-439q0 -84 -35.5 -145.5t-100 -95.5t-152.5 -34zM353 741q-54 0 -96.5 18.5t-66.5 52t-24 76.5h122q0 -24 18.5 -39t46.5 -15t46 15
t18 39h122q0 -43 -24 -76.5t-65.5 -52t-96.5 -18.5z" />
    <glyph glyph-name="ubreve" unicode="&#x16d;" horiz-adv-x="568" 
d="M235 -12q-60 0 -101.5 24t-63.5 74.5t-22 130.5v283h132v-256q0 -50 11.5 -78.5t33 -41t48.5 -12.5q52 -1 79 31.5t27 94.5v262h132v-500h-124l-5 68q-25 -38 -62.5 -59t-84.5 -21zM283 553q-54 0 -96.5 18.5t-66.5 52t-24 76.5h122q0 -24 18.5 -39t46.5 -15t46 15t18 39
h122q0 -43 -24 -76.5t-65.5 -52t-96.5 -18.5z" />
    <glyph glyph-name="Uring" unicode="&#x16e;" horiz-adv-x="704" 
d="M350 -14q-87 0 -151 34t-98.5 95.5t-34.5 145.5v439h137v-439q0 -45 18.5 -78.5t52 -51.5t78.5 -18t78.5 18t52 51.5t18.5 78.5v439h137v-439q0 -84 -35.5 -145.5t-100 -95.5t-152.5 -34zM352 726q-32 0 -59 15t-43 40t-16 56q0 32 16 57t43 40t59 15t58.5 -15t42.5 -40
t16 -57q0 -31 -16 -56t-42.5 -40t-58.5 -15zM352 802q34 0 34 35q0 36 -34 36q-35 0 -35 -36q0 -35 35 -35z" />
    <glyph glyph-name="uring" unicode="&#x16f;" horiz-adv-x="568" 
d="M235 -12q-60 0 -101.5 24t-63.5 74.5t-22 130.5v283h132v-256q0 -50 11.5 -78.5t33 -41t48.5 -12.5q52 -1 79 31.5t27 94.5v262h132v-500h-124l-5 68q-25 -38 -62.5 -59t-84.5 -21zM282 538q-32 0 -59 15t-43 40t-16 56q0 32 16 57t43 40t59 15t58.5 -15t42.5 -40t16 -57
q0 -31 -16 -56t-42.5 -40t-58.5 -15zM282 614q34 0 34 35q0 36 -34 36q-35 0 -35 -36q0 -35 35 -35z" />
    <glyph glyph-name="Uhungarumlaut" unicode="&#x170;" horiz-adv-x="704" 
d="M350 -14q-87 0 -151 34t-98.5 95.5t-34.5 145.5v439h137v-439q0 -45 18.5 -78.5t52 -51.5t78.5 -18t78.5 18t52 51.5t18.5 78.5v439h137v-439q0 -84 -35.5 -145.5t-100 -95.5t-152.5 -34zM389 750l100 138h138l-117 -138h-121zM183 750l98 138h137l-115 -138h-120z" />
    <glyph glyph-name="uhungarumlaut" unicode="&#x171;" horiz-adv-x="568" 
d="M235 -12q-60 0 -101.5 24t-63.5 74.5t-22 130.5v283h132v-256q0 -50 11.5 -78.5t33 -41t48.5 -12.5q52 -1 79 31.5t27 94.5v262h132v-500h-124l-5 68q-25 -38 -62.5 -59t-84.5 -21zM320 562l100 138h138l-117 -138h-121zM114 562l98 138h137l-115 -138h-120z" />
    <glyph glyph-name="Uogonek" unicode="&#x172;" horiz-adv-x="704" 
d="M350 -14q-87 0 -151 34t-98.5 95.5t-34.5 145.5v439h137v-439q0 -45 18.5 -78.5t52 -51.5t78.5 -18t78.5 18t52 51.5t18.5 78.5v439h137v-439q0 -84 -35.5 -145.5t-100 -95.5t-152.5 -34zM538 -205q-43 0 -78 11.5t-55 33.5t-20 55q0 34 19 62t52 52t74 48l24 -1
q-28 -26 -42.5 -48.5t-19.5 -42t-5 -38.5t11 -29.5t30 -10.5q15 0 27.5 2t22.5 6l39 -82q-17 -10 -36.5 -14t-42.5 -4z" />
    <glyph glyph-name="uogonek" unicode="&#x173;" horiz-adv-x="568" 
d="M235 -12q-60 0 -101.5 24t-63.5 74.5t-22 130.5v283h132v-256q0 -50 11.5 -78.5t33 -41t48.5 -12.5q52 -1 79 31.5t27 94.5v262h132v-500h-124l-5 68q-25 -38 -62.5 -59t-84.5 -21zM468 -212q-38 0 -69 12.5t-49 36.5t-18 61q0 32 23 60t54 47l102 -5q-30 -21 -51 -45.5
t-21 -49.5q0 -11 7.5 -18t19.5 -7q13 0 22.5 3t14.5 6l39 -83q-15 -9 -33 -13.5t-41 -4.5z" />
    <glyph glyph-name="Wcircumflex" unicode="&#x174;" horiz-adv-x="985" 
d="M215 0l-207 700h139l142 -490l135 490h136l136 -483l142 483h139l-209 -700h-144l-132 486l-134 -486h-143zM561 743l-140 131v8h136l124 -139h-120zM296 743l124 139h136v-8l-140 -131h-120z" />
    <glyph glyph-name="wcircumflex" unicode="&#x175;" horiz-adv-x="835" 
d="M180 0l-170 500h134l104 -322l105 322h130l103 -317l105 317h134l-170 -500h-130l-107 338l-108 -338h-130zM487 573l-140 131v8h136l124 -139h-120zM222 573l124 139h136v-8l-140 -131h-120z" />
    <glyph glyph-name="Ycircumflex" unicode="&#x176;" horiz-adv-x="647" 
d="M255 0v295l-248 405h156l160 -268l161 268h156l-248 -404v-296h-137zM392 743l-140 131v8h136l124 -139h-120zM127 743l124 139h136v-8l-140 -131h-120z" />
    <glyph glyph-name="ycircumflex" unicode="&#x177;" horiz-adv-x="576" 
d="M157 -212q-27 0 -59.5 10.5t-57.5 24.5l49 107q17 -9 31.5 -14.5t25.5 -5.5q21 0 37 11.5t26 33.5l21 51l-226 494h145l142 -345l136 345h145l-227 -543q-21 -50 -44 -88.5t-56.5 -59.5t-87.5 -21zM357 573l-140 131v8h136l124 -139h-120zM92 573l124 139h136v-8
l-140 -131h-120z" />
    <glyph glyph-name="Ydieresis" unicode="&#x178;" horiz-adv-x="647" 
d="M255 0v295l-248 405h156l160 -268l161 268h156l-248 -404v-296h-137zM452 763q-27 0 -47.5 21t-20.5 48q0 28 20.5 48.5t47.5 20.5q28 0 48.5 -20.5t20.5 -48.5q0 -27 -20.5 -48t-48.5 -21zM194 763q-28 0 -48.5 20.5t-20.5 48.5q0 29 20.5 49t48.5 20t48 -20t20 -49
q0 -28 -20 -48.5t-48 -20.5z" />
    <glyph glyph-name="Zacute" unicode="&#x179;" 
d="M38 0v128l379 444h-376v128h553v-128l-379 -444h376v-128h-553zM233 750l114 138h148l-129 -138h-133z" />
    <glyph glyph-name="zacute" unicode="&#x17a;" horiz-adv-x="477" 
d="M32 0v96l247 295h-247v109h412v-95l-247 -297h248v-108h-413zM154 562l114 138h148l-129 -138h-133z" />
    <glyph glyph-name="Zdotaccent" unicode="&#x17b;" 
d="M38 0v128l379 444h-376v128h553v-128l-379 -444h376v-128h-553zM317 769q-30 0 -53 22.5t-23 53.5t23 53.5t53 22.5q31 0 53.5 -22.5t22.5 -53.5t-22.5 -53.5t-53.5 -22.5z" />
    <glyph glyph-name="zdotaccent" unicode="&#x17c;" horiz-adv-x="477" 
d="M32 0v96l247 295h-247v109h412v-95l-247 -297h248v-108h-413zM238 581q-30 0 -53 22.5t-23 53.5t23 53.5t53 22.5q31 0 53.5 -22.5t22.5 -53.5t-22.5 -53.5t-53.5 -22.5z" />
    <glyph glyph-name="Zcaron" unicode="&#x17d;" 
d="M38 0v128l379 444h-376v128h553v-128l-379 -444h376v-128h-553zM254 750v3l131 135h121l-124 -138h-128zM245 750l-124 138h121l131 -135v-3h-128z" />
    <glyph glyph-name="zcaron" unicode="&#x17e;" horiz-adv-x="477" 
d="M32 0v96l247 295h-247v109h412v-95l-247 -297h248v-108h-413zM175 562v3l131 135h121l-124 -138h-128zM166 562l-124 138h121l131 -135v-3h-128z" />
    <glyph glyph-name="uni01CD" unicode="&#x1cd;" horiz-adv-x="714" 
d="M8 0l276 700h146l276 -700h-145l-60 154h-288l-60 -154h-145zM258 275h198l-99 254zM294 750v3l131 135h121l-124 -138h-128zM285 750l-124 138h121l131 -135v-3h-128z" />
    <glyph glyph-name="uni01CE" unicode="&#x1ce;" horiz-adv-x="528" 
d="M219 -12q-90 0 -139.5 40t-49.5 113q0 80 53.5 120.5t150.5 40.5h118q-7 46 -29 70.5t-63 24.5q-32 0 -58 -14t-44 -43l-116 40q14 32 41 62.5t70.5 50t106.5 19.5q76 0 126.5 -29t75 -81.5t23.5 -124.5l-3 -277h-123l-2 58q-19 -34 -53.5 -52t-84.5 -18zM241 98
q32 0 58 15t41 39t15 50v2h-75q-65 0 -90 -15.5t-25 -43.5q0 -22 20 -34.5t56 -12.5zM189 562v3l131 135h121l-124 -138h-128zM180 562l-124 138h121l131 -135v-3h-128z" />
    <glyph glyph-name="uni0218" unicode="&#x218;" horiz-adv-x="607" 
d="M311 -12q-53 0 -99 13t-82 36.5t-59.5 52.5t-30.5 61l134 40q13 -34 46 -58.5t83 -25.5q53 -1 86.5 23t33.5 62q0 33 -26.5 55.5t-72.5 34.5l-91 24q-51 13 -90 39.5t-61 65.5t-22 91q0 99 65.5 154.5t185.5 55.5q67 0 117.5 -19.5t84.5 -55.5t52 -85l-133 -41
q-12 34 -44 58t-81 24q-50 0 -78.5 -23t-28.5 -65q0 -33 22.5 -52t61.5 -29l92 -23q90 -22 140 -79t50 -127q0 -62 -30 -108.5t-87 -72.5t-138 -26zM208 -200l46 150h129l-74 -150h-101z" />
    <glyph glyph-name="uni0219" unicode="&#x219;" horiz-adv-x="481" 
d="M244 -12q-48 0 -90 14.5t-74 42t-50 67.5l113 52q15 -24 41 -41.5t60 -17.5q33 0 51 9.5t18 27.5t-14.5 26.5t-39.5 14.5l-46 12q-72 19 -113.5 60.5t-41.5 95.5q0 77 49.5 119t140.5 42q47 0 87.5 -14t69.5 -39t40 -58l-109 -50q-7 20 -34 32.5t-54 12.5t-41.5 -11.5
t-14.5 -31.5q0 -13 14 -21.5t40 -14.5l65 -16q49 -12 78.5 -38.5t43 -59t13.5 -63.5q0 -45 -26.5 -79.5t-72 -53.5t-103.5 -19zM142 -199l46 150h129l-74 -150h-101z" />
    <glyph glyph-name="uni021A" unicode="&#x21a;" horiz-adv-x="584" 
d="M224 0v575h-210v125h556v-125h-209v-575h-137zM190 -200l46 150h129l-74 -150h-101z" />
    <glyph glyph-name="uni021B" unicode="&#x21b;" horiz-adv-x="402" 
d="M263 -12q-83 0 -125.5 41t-42.5 117v242h-81v112h81v156h132v-156h125v-112h-125v-213q0 -32 14 -48.5t41 -16.5q10 0 22 4.5t25 13.5l46 -99q-24 -18 -53.5 -29.5t-58.5 -11.5zM115 -200l46 150h129l-74 -150h-101z" />
    <glyph glyph-name="uni0237" unicode="&#x237;" horiz-adv-x="279" 
d="M47 -215q-57 0 -109 31l53 109q16 -8 29.5 -12.5t23.5 -4.5q48 0 48 63v529h132v-538q0 -85 -46 -131t-131 -46z" />
    <glyph glyph-name="circumflex" unicode="&#x2c6;" horiz-adv-x="405" 
d="M275 573l-140 131v8h136l124 -139h-120zM10 573l124 139h136v-8l-140 -131h-120z" />
    <glyph glyph-name="caron" unicode="&#x2c7;" horiz-adv-x="405" 
d="M137 562v3l131 135h121l-124 -138h-128zM128 562l-124 138h121l131 -135v-3h-128z" />
    <glyph glyph-name="breve" unicode="&#x2d8;" horiz-adv-x="373" 
d="M187 553q-54 0 -96.5 18.5t-66.5 52t-24 76.5h122q0 -24 18.5 -39t46.5 -15t46 15t18 39h122q0 -43 -24 -76.5t-65.5 -52t-96.5 -18.5z" />
    <glyph glyph-name="dotaccent" unicode="&#x2d9;" horiz-adv-x="152" 
d="M76 581q-30 0 -53 22.5t-23 53.5t23 53.5t53 22.5q31 0 53.5 -22.5t22.5 -53.5t-22.5 -53.5t-53.5 -22.5z" />
    <glyph glyph-name="ring" unicode="&#x2da;" horiz-adv-x="470" 
d="M254 538q-31 0 -58 15t-43.5 40t-16.5 56q0 32 16.5 57t43 40t58.5 15t58.5 -15t42.5 -40t16 -57q0 -31 -16 -56t-42.5 -40t-58.5 -15zM254 614q34 0 34 35q0 36 -34 36q-35 0 -35 -36q0 -35 35 -35z" />
    <glyph glyph-name="ogonek" unicode="&#x2db;" horiz-adv-x="250" 
d="M164 -212q-38 0 -69 12.5t-49 36.5t-18 61q0 32 23 60t54 47l102 -5q-30 -21 -51 -45.5t-21 -49.5q0 -11 7.5 -18t19.5 -7q13 0 22.5 3t14.5 6l39 -83q-15 -9 -33 -13.5t-41 -4.5z" />
    <glyph glyph-name="tilde" unicode="&#x2dc;" horiz-adv-x="392" 
d="M263 549q-33 0 -52.5 11t-30.5 25t-21 25t-25 11q-12 0 -20.5 -7t-14.5 -31h-89q5 41 19.5 68.5t40 41.5t60.5 14t54.5 -11t31.5 -25t22 -25t25 -11t21.5 11t8.5 28h89q-7 -56 -35.5 -90.5t-83.5 -34.5z" />
    <glyph glyph-name="hungarumlaut" unicode="&#x2dd;" horiz-adv-x="462" 
d="M218 562l100 138h138l-117 -138h-121zM12 562l98 138h137l-115 -138h-120z" />
    <glyph glyph-name="gravecomb" unicode="&#x300;" horiz-adv-x="0" 
d="M212 562l-131 139h148l116 -139h-133z" />
    <glyph glyph-name="acutecomb" unicode="&#x301;" horiz-adv-x="0" 
d="M240 562l114 138h148l-129 -138h-133z" />
    <glyph glyph-name="uni0302" unicode="&#x302;" horiz-adv-x="0" 
d="M271 573l-140 131v8h136l124 -139h-120zM6 573l124 139h136v-8l-140 -131h-120z" />
    <glyph glyph-name="tildecomb" unicode="&#x303;" horiz-adv-x="0" 
d="M342 549q-33 0 -52.5 11t-30.5 25t-21 25t-25 11q-12 0 -20.5 -7t-14.5 -31h-89q5 41 19.5 68.5t40 41.5t60.5 14t54.5 -11t31.5 -25t22 -25t25 -11t21.5 11t8.5 28h89q-7 -56 -35.5 -90.5t-83.5 -34.5z" />
    <glyph glyph-name="uni0304" unicode="&#x304;" horiz-adv-x="0" 
d="M-12 561v114h324v-114h-324z" />
    <glyph glyph-name="uni0306" unicode="&#x306;" horiz-adv-x="0" 
d="M187 553q-54 0 -96.5 18.5t-66.5 52t-24 76.5h122q0 -24 18.5 -39t46.5 -15t46 15t18 39h122q0 -43 -24 -76.5t-65.5 -52t-96.5 -18.5z" />
    <glyph glyph-name="uni0307" unicode="&#x307;" horiz-adv-x="0" 
d="M76 581q-30 0 -53 22.5t-23 53.5t23 53.5t53 22.5q31 0 53.5 -22.5t22.5 -53.5t-22.5 -53.5t-53.5 -22.5z" />
    <glyph glyph-name="uni0308" unicode="&#x308;" horiz-adv-x="0" 
d="M351 593q-27 0 -47.5 21t-20.5 48q0 28 20.5 48.5t47.5 20.5q28 0 48.5 -20.5t20.5 -48.5q0 -27 -20.5 -48t-48.5 -21zM93 593q-28 0 -48.5 20.5t-20.5 48.5q0 29 20.5 49t48.5 20t48 -20t20 -49q0 -28 -20 -48.5t-48 -20.5z" />
    <glyph glyph-name="uni030A" unicode="&#x30a;" horiz-adv-x="0" 
d="M162 538q-32 0 -59 15t-43 40t-16 56q0 32 16 57t43 40t59 15t58.5 -15t42.5 -40t16 -57q0 -31 -16 -56t-42.5 -40t-58.5 -15zM162 614q34 0 34 35q0 36 -34 36q-35 0 -35 -36q0 -35 35 -35z" />
    <glyph glyph-name="uni030B" unicode="&#x30b;" horiz-adv-x="0" 
d="M208 562l100 138h138l-117 -138h-121zM2 562l98 138h137l-115 -138h-120z" />
    <glyph glyph-name="uni030C" unicode="&#x30c;" horiz-adv-x="0" 
d="M133 562v3l131 135h121l-124 -138h-128zM124 562l-124 138h121l131 -135v-3h-128z" />
    <glyph glyph-name="uni0312" unicode="&#x312;" horiz-adv-x="0" 
d="M198 713l-62 -141h-136l98 141h100z" />
    <glyph glyph-name="uni0326" unicode="&#x326;" horiz-adv-x="0" 
d="M19 -200l46 150h129l-74 -150h-101z" />
    <glyph glyph-name="uni0327" unicode="&#x327;" horiz-adv-x="0" 
d="M262 -210q-22 0 -46 7t-50 22l20 63q15 -8 29.5 -13t26.5 -5q17 0 29 6t12 21q0 20 -16.5 30t-48.5 12l30 73l76 -6l-13 -29q35 -12 52.5 -34.5t17.5 -49.5q0 -43 -30 -70t-89 -27z" />
    <glyph glyph-name="uni0328" unicode="&#x328;" horiz-adv-x="0" 
d="M164 -212q-38 0 -69 12.5t-49 36.5t-18 61q0 32 23 60t54 47l102 -5q-30 -21 -51 -45.5t-21 -49.5q0 -11 7.5 -18t19.5 -7q13 0 22.5 3t14.5 6l39 -83q-15 -9 -33 -13.5t-41 -4.5z" />
    <glyph glyph-name="Wgrave" unicode="&#x1e80;" horiz-adv-x="985" 
d="M215 0l-207 700h139l142 -490l135 490h136l136 -483l142 483h139l-209 -700h-144l-132 486l-134 -486h-143zM467 732l-131 139h148l116 -139h-133z" />
    <glyph glyph-name="wgrave" unicode="&#x1e81;" horiz-adv-x="835" 
d="M180 0l-170 500h134l104 -322l105 322h130l103 -317l105 317h134l-170 -500h-130l-107 338l-108 -338h-130zM394 562l-131 139h148l116 -139h-133z" />
    <glyph glyph-name="Wacute" unicode="&#x1e82;" horiz-adv-x="985" 
d="M215 0l-207 700h139l142 -490l135 490h136l136 -483l142 483h139l-209 -700h-144l-132 486l-134 -486h-143zM407 732l114 138h148l-129 -138h-133z" />
    <glyph glyph-name="wacute" unicode="&#x1e83;" horiz-adv-x="835" 
d="M180 0l-170 500h134l104 -322l105 322h130l103 -317l105 317h134l-170 -500h-130l-107 338l-108 -338h-130zM334 562l114 138h148l-129 -138h-133z" />
    <glyph glyph-name="Wdieresis" unicode="&#x1e84;" horiz-adv-x="985" 
d="M215 0l-207 700h139l142 -490l135 490h136l136 -483l142 483h139l-209 -700h-144l-132 486l-134 -486h-143zM621 763q-27 0 -47.5 21t-20.5 48q0 28 20.5 48.5t47.5 20.5q28 0 48.5 -20.5t20.5 -48.5q0 -27 -20.5 -48t-48.5 -21zM363 763q-28 0 -48.5 20.5t-20.5 48.5
q0 29 20.5 49t48.5 20t48 -20t20 -49q0 -28 -20 -48.5t-48 -20.5z" />
    <glyph glyph-name="wdieresis" unicode="&#x1e85;" horiz-adv-x="835" 
d="M180 0l-170 500h134l104 -322l105 322h130l103 -317l105 317h134l-170 -500h-130l-107 338l-108 -338h-130zM547 593q-27 0 -47.5 21t-20.5 48q0 28 20.5 48.5t47.5 20.5q28 0 48.5 -20.5t20.5 -48.5q0 -27 -20.5 -48t-48.5 -21zM289 593q-28 0 -48.5 20.5t-20.5 48.5
q0 29 20.5 49t48.5 20t48 -20t20 -49q0 -28 -20 -48.5t-48 -20.5z" />
    <glyph glyph-name="uni1E9E" unicode="&#x1e9e;" horiz-adv-x="634" 
d="M373 -12q-19 0 -51.5 6.5t-60.5 25.5l37 118q9 -6 26 -13.5t43 -7.5q44 0 71 25.5t27 71.5q0 42 -26 63.5t-83 21.5h-61v99l128 157q-22 14 -50 24t-67 10q-45 0 -67.5 -22.5t-22.5 -63.5v-503h-140v542q0 81 62 125.5t177 44.5q67 0 120.5 -20t94.5 -49.5t67 -57.5
l-154 -200q77 -15 116.5 -64.5t39.5 -126.5q0 -97 -57.5 -151.5t-168.5 -54.5z" />
    <glyph glyph-name="Ygrave" unicode="&#x1ef2;" horiz-adv-x="647" 
d="M255 0v295l-248 405h156l160 -268l161 268h156l-248 -404v-296h-137zM299 732l-131 139h148l116 -139h-133z" />
    <glyph glyph-name="ygrave" unicode="&#x1ef3;" horiz-adv-x="576" 
d="M157 -212q-27 0 -59.5 10.5t-57.5 24.5l49 107q17 -9 31.5 -14.5t25.5 -5.5q21 0 37 11.5t26 33.5l21 51l-226 494h145l142 -345l136 345h145l-227 -543q-21 -50 -44 -88.5t-56.5 -59.5t-87.5 -21zM263 562l-131 139h148l116 -139h-133z" />
    <glyph glyph-name="endash" unicode="&#x2013;" horiz-adv-x="550" 
d="M0 241v113h550v-113h-550z" />
    <glyph glyph-name="emdash" unicode="&#x2014;" horiz-adv-x="1100" 
d="M0 241v113h1100v-113h-1100z" />
    <glyph glyph-name="quoteleft" unicode="&#x2018;" horiz-adv-x="219" 
d="M206 700l-62 -236h-136l98 236h100z" />
    <glyph glyph-name="quoteright" unicode="&#x2019;" horiz-adv-x="219" 
d="M13 464l61 236h137l-98 -236h-100z" />
    <glyph glyph-name="quotesinglbase" unicode="&#x201a;" horiz-adv-x="250" 
d="M29 -114l61 236h137l-98 -236h-100z" />
    <glyph glyph-name="quotedblleft" unicode="&#x201c;" horiz-adv-x="415" 
d="M206 702l-62 -236h-136l98 236h100zM402 702l-62 -236h-136l97 236h101z" />
    <glyph glyph-name="quotedblright" unicode="&#x201d;" horiz-adv-x="415" 
d="M209 464l61 236h137l-98 -236h-100zM13 464l61 236h137l-98 -236h-100z" />
    <glyph glyph-name="quotedblbase" unicode="&#x201e;" horiz-adv-x="407" 
d="M204 -114l61 236h137l-98 -236h-100zM8 -114l62 236h136l-98 -236h-100z" />
    <glyph glyph-name="dagger" unicode="&#x2020;" horiz-adv-x="488" 
d="M177 0l29 446l-23 254h122l-23 -254l29 -446h-134zM29 386v122l215 -23l214 23v-122l-214 23z" />
    <glyph glyph-name="daggerdbl" unicode="&#x2021;" horiz-adv-x="488" 
d="M175 -200l29 252l-17 198l17 196l-23 254h122l-23 -254l17 -196l-17 -198l29 -252h-134zM31 -5v116l215 -20l214 20v-116l-214 20zM27 389v116l215 -20l214 20v-116l-214 20z" />
    <glyph glyph-name="bullet" unicode="&#x2022;" horiz-adv-x="468" 
d="M234 166q-33 0 -60.5 16.5t-43.5 43.5t-16 60t16 59.5t43.5 42.5t60.5 16t60.5 -16t43.5 -42.5t16 -59.5t-16 -60t-43.5 -43.5t-60.5 -16.5z" />
    <glyph glyph-name="ellipsis" unicode="&#x2026;" horiz-adv-x="709" 
d="M124 -15q-33 0 -56.5 24t-23.5 57q0 32 23.5 56t56.5 24t56.5 -24t23.5 -56q0 -33 -23.5 -57t-56.5 -24zM354 -15q-33 0 -56.5 24t-23.5 57q0 32 23.5 56t56.5 24t56.5 -24t23.5 -56q0 -33 -23.5 -57t-56.5 -24zM585 -15q-33 0 -56.5 24t-23.5 57q0 32 23.5 56t56.5 24
t56.5 -24t23.5 -56q0 -33 -23.5 -57t-56.5 -24z" />
    <glyph glyph-name="guilsinglleft" unicode="&#x2039;" horiz-adv-x="400" 
d="M195 96l-148 202l148 202h151l-143 -202l143 -202h-151z" />
    <glyph glyph-name="guilsinglright" unicode="&#x203a;" horiz-adv-x="400" 
d="M205 96h-151l143 202l-143 202h151l148 -202z" />
    <glyph glyph-name="fraction" unicode="&#x2044;" horiz-adv-x="222" 
d="M-179 0l481 700h99l-481 -700h-99z" />
    <glyph glyph-name="uni2070" unicode="&#x2070;" horiz-adv-x="406" 
d="M204 373q-53 0 -93 27.5t-63 76.5t-23 113q0 65 22.5 113.5t63 76t92.5 27.5q53 0 92.5 -27.5t62.5 -76t23 -113.5q0 -64 -22.5 -113t-62.5 -76.5t-92 -27.5zM203 463q36 0 59 36t23 91q0 57 -23 93t-60 36q-33 0 -54.5 -36t-21.5 -93q0 -56 22 -91.5t55 -35.5z" />
    <glyph glyph-name="uni2074" unicode="&#x2074;" horiz-adv-x="395" 
d="M89 495l-71 37l183 268l58 -55zM18 452v80l54 4h302v-84h-356zM214 380v368l-12 52h106v-420h-94z" />
    <glyph glyph-name="uni2075" unicode="&#x2075;" horiz-adv-x="367" 
d="M186 373q-31 0 -63.5 11t-57 32t-34.5 50l94 22q9 -15 23.5 -22.5t31.5 -7.5q25 0 41 15.5t16 41.5q0 24 -15.5 40.5t-41.5 16.5q-15 0 -27.5 -6.5t-20.5 -19.5l-89 20l28 234h245v-90h-228l-17 87h98l-38 -242l-46 11q6 13 23 32.5t45.5 34t67.5 13.5q49 -1 84 -36
t35 -89q0 -66 -43 -107t-111 -41z" />
    <glyph glyph-name="uni2076" unicode="&#x2076;" horiz-adv-x="362" 
d="M185 373q-55 0 -90.5 25.5t-52 69.5t-16.5 98q0 45 9.5 88.5t30 78t54.5 54.5t83 20q34 0 66.5 -9.5t57.5 -27.5l-47 -73q-18 13 -39.5 18.5t-36.5 5.5q-39 0 -63 -35.5t-22 -113.5l-21 11q14 31 42 50t65 19q40 0 70.5 -19.5t48 -51.5t17.5 -72q0 -59 -42 -97.5
t-114 -38.5zM186 456q24 0 40.5 16.5t16.5 41.5t-16.5 42t-40.5 17t-40.5 -17t-16.5 -42t16.5 -41.5t40.5 -16.5z" />
    <glyph glyph-name="uni2077" unicode="&#x2077;" horiz-adv-x="349" 
d="M66 380l153 334l109 15l-152 -349h-110zM23 709v91h305v-71l-106 -20h-199z" />
    <glyph glyph-name="uni2078" unicode="&#x2078;" horiz-adv-x="384" 
d="M192 373q-80 0 -121.5 32t-41.5 84q0 57 41 92.5t121 35.5t121.5 -35.5t41.5 -92.5q0 -52 -41.5 -84t-120.5 -32zM191 454q27 0 44 13.5t17 35.5q0 24 -17 39.5t-43 15.5q-27 0 -44 -15.5t-17 -39.5q0 -22 17 -35.5t43 -13.5zM191 633q24 0 39 14t15 35q0 20 -15 33.5
t-39 13.5q-23 0 -38 -13.5t-15 -33.5q0 -21 15 -35t38 -14zM191 582q-72 0 -110.5 31t-38.5 80q0 50 38.5 82t111.5 32q72 0 110.5 -32t38.5 -82q0 -49 -39 -80t-111 -31z" />
    <glyph glyph-name="uni2079" unicode="&#x2079;" horiz-adv-x="362" 
d="M159 372q-34 0 -66.5 9.5t-57.5 27.5l47 73q19 -12 40.5 -17.5t35.5 -5.5q38 0 62 34t23 115l20 -11q-13 -30 -40 -50t-66 -20q-40 0 -70.5 19.5t-48 52.5t-17.5 72q0 58 42 97t114 39q55 0 90 -26t52 -69.5t17 -98.5q0 -45 -9.5 -87.5t-30 -77t-54.5 -55.5t-83 -21z
M176 606q24 0 40.5 18t16.5 42q0 25 -16.5 41.5t-40.5 16.5t-40.5 -16.5t-16.5 -41.5t16.5 -42.5t40.5 -17.5z" />
    <glyph glyph-name="uni2080" unicode="&#x2080;" horiz-adv-x="406" 
d="M204 -106q-53 0 -93 27.5t-63 76.5t-23 113q0 65 22.5 113.5t63 76t92.5 27.5q53 0 92.5 -27.5t62.5 -76t23 -113.5q0 -64 -22.5 -113t-62.5 -76.5t-92 -27.5zM203 -16q36 0 59 36t23 91q0 57 -23 93t-60 36q-33 0 -54.5 -36t-21.5 -93q0 -56 22 -91.5t55 -35.5z" />
    <glyph glyph-name="uni2081" unicode="&#x2081;" horiz-adv-x="280" 
d="M119 -100v367l10 53h84v-420h-94zM33 174v90q23 -2 48.5 15.5t47.5 41.5l63 -61q-39 -44 -78 -67t-81 -19z" />
    <glyph glyph-name="uni2082" unicode="&#x2082;" horiz-adv-x="367" 
d="M130 -44l-97 15q0 16 12 37.5t33.5 43.5t48.5 41l51 35q18 12 35 29t17 35q0 20 -14 32.5t-42 12.5q-21 0 -35.5 -13.5t-19.5 -31.5l-102 17q6 32 26.5 58.5t54 43.5t76.5 17q73 0 115 -37.5t42 -97.5q0 -43 -23.5 -73t-61.5 -56l-51 -35q-14 -10 -28 -23.5t-24.5 -27
t-12.5 -22.5zM33 -100v71l73 16h230v-87h-303z" />
    <glyph glyph-name="uni2083" unicode="&#x2083;" horiz-adv-x="355" 
d="M183 -106q-61 0 -103.5 27.5t-52.5 78.5l94 21q6 -13 17.5 -27.5t38.5 -14.5q23 0 37 13t14 35q0 12 -5.5 23.5t-21 18t-45.5 6.5h-33v64h29q46 0 86 -15.5t65 -43.5t25 -66q0 -39 -21 -65.5t-54 -40.5t-70 -14zM123 96v59h33q36 0 51 12.5t15 33.5q0 18 -12.5 30
t-33.5 12q-16 0 -31 -9t-22 -33l-92 21q6 35 28.5 58.5t54 35.5t65.5 12q39 0 71.5 -15t51.5 -40.5t19 -60.5q0 -40 -25 -65.5t-64 -38t-80 -12.5h-29z" />
    <glyph glyph-name="uni2084" unicode="&#x2084;" horiz-adv-x="395" 
d="M89 15l-71 37l183 268l58 -55zM18 -28v80l54 4h302v-84h-356zM214 -100v368l-12 52h106v-420h-94z" />
    <glyph glyph-name="uni2085" unicode="&#x2085;" horiz-adv-x="367" 
d="M186 -107q-31 0 -63.5 11t-57 32t-34.5 50l94 22q9 -15 23.5 -22.5t31.5 -7.5q25 0 41 15.5t16 41.5q0 24 -15.5 40.5t-41.5 16.5q-15 0 -27.5 -6.5t-20.5 -19.5l-89 20l28 234h245v-90h-228l-17 87h98l-38 -242l-46 11q6 13 23 32.5t45.5 34t67.5 13.5q49 -1 84 -36
t35 -89q0 -66 -43 -107t-111 -41z" />
    <glyph glyph-name="uni2086" unicode="&#x2086;" horiz-adv-x="362" 
d="M185 -107q-55 0 -90.5 25.5t-52 69.5t-16.5 98q0 45 9.5 88.5t30 78t54.5 54.5t83 20q34 0 66.5 -9.5t57.5 -27.5l-47 -73q-18 13 -39.5 18.5t-36.5 5.5q-39 0 -63 -35.5t-22 -113.5l-21 11q14 31 42 50t65 19q40 0 70.5 -19.5t48 -51.5t17.5 -72q0 -59 -42 -97.5
t-114 -38.5zM186 -24q24 0 40.5 16.5t16.5 41.5t-16.5 42t-40.5 17t-40.5 -17t-16.5 -42t16.5 -41.5t40.5 -16.5z" />
    <glyph glyph-name="uni2087" unicode="&#x2087;" horiz-adv-x="349" 
d="M66 -100l153 334l109 15l-152 -349h-110zM23 229v91h305v-71l-106 -20h-199z" />
    <glyph glyph-name="uni2088" unicode="&#x2088;" horiz-adv-x="384" 
d="M192 -107q-80 0 -121.5 32t-41.5 84q0 57 41 92.5t121 35.5t121.5 -35.5t41.5 -92.5q0 -52 -41.5 -84t-120.5 -32zM191 -26q27 0 44 13.5t17 35.5q0 24 -17 39.5t-43 15.5q-27 0 -44 -15.5t-17 -39.5q0 -22 17 -35.5t43 -13.5zM191 153q24 0 39 14t15 35q0 20 -15 33.5
t-39 13.5q-23 0 -38 -13.5t-15 -33.5q0 -21 15 -35t38 -14zM191 102q-72 0 -110.5 31t-38.5 80q0 50 38.5 82t111.5 32q72 0 110.5 -32t38.5 -82q0 -49 -39 -80t-111 -31z" />
    <glyph glyph-name="uni2089" unicode="&#x2089;" horiz-adv-x="362" 
d="M159 -108q-34 0 -66.5 9.5t-57.5 27.5l47 73q19 -12 40.5 -17.5t35.5 -5.5q38 0 62 34t23 115l20 -11q-13 -30 -40 -50t-66 -20q-40 0 -70.5 19.5t-48 52.5t-17.5 72q0 58 42 97t114 39q55 0 90 -26t52 -69.5t17 -98.5q0 -45 -9.5 -87.5t-30 -77t-54.5 -55.5t-83 -21z
M176 126q24 0 40.5 18t16.5 42q0 25 -16.5 41.5t-40.5 16.5t-40.5 -16.5t-16.5 -41.5t16.5 -42.5t40.5 -17.5z" />
    <glyph glyph-name="Euro" unicode="&#x20ac;" horiz-adv-x="695" 
d="M398 -12q-90 0 -160.5 46.5t-110 128t-39.5 187.5t39.5 187.5t109.5 128t160 46.5q63 0 116 -24.5t93 -68.5t61 -102l-120 -47q-13 35 -36 61.5t-52 41t-62 14.5q-49 0 -87.5 -30.5t-60 -83.5t-21.5 -123q0 -69 22 -123t61 -84t89 -30q35 0 63.5 15.5t50 43t35.5 63.5
l121 -46q-22 -59 -62 -104.5t-93.5 -71t-116.5 -25.5zM14 256v70h457v-70h-457zM14 374v70h457v-70h-457z" />
    <glyph glyph-name="uni20B9" unicode="&#x20b9;" horiz-adv-x="600" 
d="M311 0l-235 236v97h133q38 0 67.5 20.5t40.5 55.5h-241v100h239q-11 35 -38.5 55.5t-65.5 20.5h-135v115h458l-2 -100h-114q17 -19 28.5 -42t15.5 -49h72l-2 -100h-68q-8 -45 -34 -82.5t-65.5 -62t-89.5 -33.5l-20 -2l231 -229h-175z" />
    <glyph glyph-name="trademark" unicode="&#x2122;" horiz-adv-x="879" 
d="M620 371l-120 175v-266h-99v420h109l110 -163l110 163h109v-420h-99v267zM131 280v329h-122v91h342v-91h-121v-329h-99z" />
    <glyph glyph-name="oneeighth" unicode="&#x215b;" horiz-adv-x="886" 
d="M119 280v367l10 53h84v-420h-94zM33 554v90q23 -2 48.5 15.5t47.5 41.5l63 -61q-39 -44 -78 -67t-81 -19zM101 0l481 700h99l-481 -700h-99zM694 -7q-80 0 -121.5 32t-41.5 84q0 57 41 92.5t121 35.5t121.5 -35.5t41.5 -92.5q0 -52 -41.5 -84t-120.5 -32zM693 74
q27 0 44 13.5t17 35.5q0 24 -17 39.5t-43 15.5q-27 0 -44 -15.5t-17 -39.5q0 -22 17 -35.5t43 -13.5zM693 253q24 0 39 14t15 35q0 20 -15 33.5t-39 13.5q-23 0 -38 -13.5t-15 -33.5q0 -21 15 -35t38 -14zM693 202q-72 0 -110.5 31t-38.5 80q0 50 38.5 82t111.5 32
q72 0 110.5 -32t38.5 -82q0 -49 -39 -80t-111 -31z" />
    <glyph glyph-name="threeeighths" unicode="&#x215c;" horiz-adv-x="960" 
d="M183 273q-61 0 -103.5 27.5t-52.5 78.5l94 21q6 -13 17.5 -27.5t38.5 -14.5q23 0 37 13t14 35q0 12 -5.5 23.5t-21 18t-45.5 6.5h-33v64h29q46 0 86 -15.5t65 -43.5t25 -66q0 -39 -21 -65.5t-54 -40.5t-70 -14zM123 475v59h33q36 0 51 12.5t15 33.5q0 18 -12.5 30
t-33.5 12q-16 0 -31 -9t-22 -33l-92 21q6 35 28.5 58.5t54 35.5t65.5 12q39 0 71.5 -15t51.5 -40.5t19 -60.5q0 -40 -25 -65.5t-64 -38t-80 -12.5h-29zM176 0l481 700h99l-481 -700h-99zM769 -7q-80 0 -121.5 32t-41.5 84q0 57 41 92.5t121 35.5t121.5 -35.5t41.5 -92.5
q0 -52 -41.5 -84t-120.5 -32zM768 74q27 0 44 13.5t17 35.5q0 24 -17 39.5t-43 15.5q-27 0 -44 -15.5t-17 -39.5q0 -22 17 -35.5t43 -13.5zM768 253q24 0 39 14t15 35q0 20 -15 33.5t-39 13.5q-23 0 -38 -13.5t-15 -33.5q0 -21 15 -35t38 -14zM768 202q-72 0 -110.5 31
t-38.5 80q0 50 38.5 82t111.5 32q72 0 110.5 -32t38.5 -82q0 -49 -39 -80t-111 -31z" />
    <glyph glyph-name="fiveeighths" unicode="&#x215d;" horiz-adv-x="972" 
d="M186 273q-31 0 -63.5 11t-57 32t-34.5 50l94 22q9 -15 23.5 -22.5t31.5 -7.5q25 0 41 15.5t16 41.5q0 24 -15.5 40.5t-41.5 16.5q-15 0 -27.5 -6.5t-20.5 -19.5l-89 20l28 234h245v-90h-228l-17 87h98l-38 -242l-46 11q6 13 23 32.5t45.5 34t67.5 13.5q49 -1 84 -36
t35 -89q0 -66 -43 -107t-111 -41zM188 0l481 700h99l-481 -700h-99zM781 -7q-80 0 -121.5 32t-41.5 84q0 57 41 92.5t121 35.5t121.5 -35.5t41.5 -92.5q0 -52 -41.5 -84t-120.5 -32zM780 74q27 0 44 13.5t17 35.5q0 24 -17 39.5t-43 15.5q-27 0 -44 -15.5t-17 -39.5
q0 -22 17 -35.5t43 -13.5zM780 253q24 0 39 14t15 35q0 20 -15 33.5t-39 13.5q-23 0 -38 -13.5t-15 -33.5q0 -21 15 -35t38 -14zM780 202q-72 0 -110.5 31t-38.5 80q0 50 38.5 82t111.5 32q72 0 110.5 -32t38.5 -82q0 -49 -39 -80t-111 -31z" />
    <glyph glyph-name="seveneighths" unicode="&#x215e;" horiz-adv-x="926" 
d="M66 280l153 334l109 15l-152 -349h-110zM23 609v91h305v-71l-106 -20h-199zM142 0l481 700h99l-481 -700h-99zM735 -7q-80 0 -121.5 32t-41.5 84q0 57 41 92.5t121 35.5t121.5 -35.5t41.5 -92.5q0 -52 -41.5 -84t-120.5 -32zM734 74q27 0 44 13.5t17 35.5q0 24 -17 39.5
t-43 15.5q-27 0 -44 -15.5t-17 -39.5q0 -22 17 -35.5t43 -13.5zM734 253q24 0 39 14t15 35q0 20 -15 33.5t-39 13.5q-23 0 -38 -13.5t-15 -33.5q0 -21 15 -35t38 -14zM734 202q-72 0 -110.5 31t-38.5 80q0 50 38.5 82t111.5 32q72 0 110.5 -32t38.5 -82q0 -49 -39 -80
t-111 -31z" />
    <glyph glyph-name="arrowleft" unicode="&#x2190;" horiz-adv-x="751" 
d="M163 238l-106 59l285 279l78 -81zM687 242h-550v113h550v-113zM345 23l-288 274l105 62l260 -254z" />
    <glyph glyph-name="arrowup" unicode="&#x2191;" horiz-adv-x="733" 
d="M428 606l-257 -257l-81 78l279 285zM424 0h-113v632h113v-632zM643 424l-82 -77l-254 260l62 105z" />
    <glyph glyph-name="arrowright" unicode="&#x2192;" horiz-adv-x="751" 
d="M588 238l-257 256l78 82l285 -279zM64 241v113h550v-113h-550zM406 22l-78 82l261 255l105 -62z" />
    <glyph glyph-name="arrowdown" unicode="&#x2193;" horiz-adv-x="733" 
d="M428 94l-59 -106l-279 285l81 78zM424 700v-632h-113v632h113zM643 276l-274 -288l-62 105l254 260z" />
    <glyph glyph-name="uni2196" unicode="&#x2196;" horiz-adv-x="667" 
d="M591 282l-80 -80l-418 418l80 80zM188 319h-112v398l110 -34zM474 605l-365 1l-33 111h398v-112z" />
    <glyph glyph-name="uni2197" unicode="&#x2197;" horiz-adv-x="666" 
d="M156 185l-80 80l418 418l79 -80zM192 588v112h398l-33 -110zM479 302l1 365l110 33v-398h-111z" />
    <glyph glyph-name="uni2198" unicode="&#x2198;" horiz-adv-x="667" 
d="M76 423l80 79l417 -417l-79 -80zM479 386h112v-398l-111 33zM193 100l365 -2l33 -110h-398v112z" />
    <glyph glyph-name="uni2199" unicode="&#x2199;" horiz-adv-x="666" 
d="M511 515l79 -80l-417 -418l-80 80zM474 112v-112h-398l33 110zM188 398l-2 -365l-110 -33v398h112z" />
    <glyph glyph-name="minus" unicode="&#x2212;" 
d="M123 243v109h386v-109h-386z" />
    <glyph glyph-name="uni2215" unicode="&#x2215;" 
d="M31 0l481 700h89l-481 -700h-89z" />
    <glyph glyph-name="notequal" unicode="&#x2260;" 
d="M138 72l256 512h105l-256 -512h-105zM116 376v106h400v-106h-400zM116 176v106h400v-106h-400z" />
    <glyph glyph-name="lessequal" unicode="&#x2264;" 
d="M500 0h-373v92h373v-92zM500 129l-373 154v102l373 153v-110l-238 -94l238 -96v-109z" />
    <glyph glyph-name="greaterequal" unicode="&#x2265;" 
d="M132 0v92h373v-92h-373zM132 129v109l238 96l-238 94v110l373 -153v-102z" />
    <glyph glyph-name="uni004A0301" horiz-adv-x="552" 
d="M231 -14q-51 0 -90.5 16.5t-67 42.5t-43.5 56t-22 58l116 44q16 -44 42.5 -68t66.5 -24q30 0 57 14t43.5 45t16.5 80v450h136v-490q0 -52 -19 -93.5t-53.5 -70.5t-81 -44.5t-101.5 -15.5zM331 732l114 138h148l-129 -138h-133z" />
    <glyph glyph-name="I.ss02" horiz-adv-x="425" 
d="M38 0v125h106v450h-106v125h349v-125h-106v-450h106v-125h-349z" />
    <glyph glyph-name="IJ.ss02" horiz-adv-x="977" 
d="M38 0v125h106v450h-106v125h349v-125h-106v-450h106v-125h-349zM656 -14q-51 0 -90.5 16.5t-67 42.5t-43.5 56t-22 58l116 44q16 -44 42.5 -68t66.5 -24q30 0 57 14t43.5 45t16.5 80v450h136v-490q0 -52 -19 -93.5t-53.5 -70.5t-81 -44.5t-101.5 -15.5z" />
    <glyph glyph-name="Iacute.ss02" horiz-adv-x="425" 
d="M38 0v125h106v450h-106v125h349v-125h-106v-450h106v-125h-349zM130 747l113 131h148l-129 -131h-132z" />
    <glyph glyph-name="Icircumflex.ss02" horiz-adv-x="425" 
d="M38 0v125h106v450h-106v125h349v-125h-106v-450h106v-125h-349zM283 761l-140 131v8h136l124 -139h-120zM18 761l124 139h136v-8l-140 -131h-120z" />
    <glyph glyph-name="Idieresis.ss02" horiz-adv-x="425" 
d="M304 781q-27 0 -48 21t-21 48q0 28 21 48.5t48 20.5q28 0 48.5 -20.5t20.5 -48.5q0 -27 -20.5 -48t-48.5 -21zM136 781q-28 0 -48.5 20.5t-20.5 48.5q0 29 20.5 49t48.5 20t48.5 -20t20.5 -49q0 -28 -20.5 -48.5t-48.5 -20.5zM38 0v125h106v450h-106v125h349v-125h-106
v-450h106v-125h-349z" />
    <glyph glyph-name="Idotaccent.ss02" horiz-adv-x="425" 
d="M38 0v125h106v450h-106v125h349v-125h-106v-450h106v-125h-349zM214 769q-30 0 -53 22.5t-23 53.5t23 53.5t53 22.5q31 0 53.5 -22.5t22.5 -53.5t-22.5 -53.5t-53.5 -22.5z" />
    <glyph glyph-name="Igrave.ss02" horiz-adv-x="425" 
d="M38 0v125h106v450h-106v125h349v-125h-106v-450h106v-125h-349zM189 750l-131 139h148l116 -139h-133z" />
    <glyph glyph-name="Imacron.ss02" horiz-adv-x="425" 
d="M38 0v125h106v450h-106v125h349v-125h-106v-450h106v-125h-349zM52 749v114h324v-114h-324z" />
    <glyph glyph-name="Iogonek.ss02" horiz-adv-x="425" 
d="M38 0v125h106v450h-106v125h349v-125h-106v-450h106v-125h-349zM237 -212q-38 0 -69 12.5t-49 36.5t-18 61q0 32 23 60t54 47l102 -5q-30 -21 -51 -45.5t-21 -49.5q0 -11 7.5 -18t19.5 -7q13 0 22.5 3t14.5 6l39 -83q-15 -9 -33 -13.5t-41 -4.5z" />
    <glyph glyph-name="i.loclTRK" horiz-adv-x="262" 
d="M65 0v500h132v-500h-132zM131 581q-30 0 -53 22.5t-23 53.5t23 53.5t53 22.5q31 0 53.5 -22.5t22.5 -53.5t-22.5 -53.5t-53.5 -22.5z" />
    <glyph glyph-name="uni006A0301" horiz-adv-x="279" 
d="M47 -215q-57 0 -109 31l53 109q16 -8 29.5 -12.5t23.5 -4.5q48 0 48 63v529h132v-538q0 -85 -46 -131t-131 -46zM73 562l114 138h148l-129 -138h-133z" />
    <glyph glyph-name="a.ss01" horiz-adv-x="595" 
d="M256 -12q-69 0 -119.5 32t-78.5 91t-28 139q0 81 28 139.5t78.5 90.5t119.5 32q49 0 87.5 -20.5t62.5 -58.5v67h132v-500h-125l-4 70q-25 -39 -64 -60.5t-89 -21.5zM290 109q33 0 58.5 16.5t40.5 46.5t17 68v20q-2 38 -17 67.5t-41 46t-59 16.5q-36 0 -63 -17.5
t-43 -49.5t-16 -73t16 -73t43.5 -50t63.5 -18z" />
    <glyph glyph-name="aacute.ss01" horiz-adv-x="595" 
d="M256 -12q-69 0 -119.5 32t-78.5 91t-28 139q0 81 28 139.5t78.5 90.5t119.5 32q49 0 87.5 -20.5t62.5 -58.5v67h132v-500h-125l-4 70q-25 -39 -64 -60.5t-89 -21.5zM290 109q33 0 58.5 16.5t40.5 46.5t17 68v20q-2 38 -17 67.5t-41 46t-59 16.5q-36 0 -63 -17.5
t-43 -49.5t-16 -73t16 -73t43.5 -50t63.5 -18zM201 562l114 138h148l-129 -138h-133z" />
    <glyph glyph-name="abreve.ss01" horiz-adv-x="595" 
d="M256 -12q-69 0 -119.5 32t-78.5 91t-28 139q0 81 28 139.5t78.5 90.5t119.5 32q49 0 87.5 -20.5t62.5 -58.5v67h132v-500h-125l-4 70q-25 -39 -64 -60.5t-89 -21.5zM290 109q33 0 58.5 16.5t40.5 46.5t17 68v20q-2 38 -17 67.5t-41 46t-59 16.5q-36 0 -63 -17.5
t-43 -49.5t-16 -73t16 -73t43.5 -50t63.5 -18zM286 553q-54 0 -96.5 18.5t-66.5 52t-24 76.5h122q0 -24 18.5 -39t46.5 -15t46 15t18 39h122q0 -43 -24 -76.5t-65.5 -52t-96.5 -18.5z" />
    <glyph glyph-name="uni01CE.ss01" horiz-adv-x="595" 
d="M256 -12q-69 0 -119.5 32t-78.5 91t-28 139q0 81 28 139.5t78.5 90.5t119.5 32q49 0 87.5 -20.5t62.5 -58.5v67h132v-500h-125l-4 70q-25 -39 -64 -60.5t-89 -21.5zM290 109q33 0 58.5 16.5t40.5 46.5t17 68v20q-2 38 -17 67.5t-41 46t-59 16.5q-36 0 -63 -17.5
t-43 -49.5t-16 -73t16 -73t43.5 -50t63.5 -18zM223 562v3l131 135h121l-124 -138h-128zM214 562l-124 138h121l131 -135v-3h-128z" />
    <glyph glyph-name="acircumflex.ss01" horiz-adv-x="595" 
d="M256 -12q-69 0 -119.5 32t-78.5 91t-28 139q0 81 28 139.5t78.5 90.5t119.5 32q49 0 87.5 -20.5t62.5 -58.5v67h132v-500h-125l-4 70q-25 -39 -64 -60.5t-89 -21.5zM290 109q33 0 58.5 16.5t40.5 46.5t17 68v20q-2 38 -17 67.5t-41 46t-59 16.5q-36 0 -63 -17.5
t-43 -49.5t-16 -73t16 -73t43.5 -50t63.5 -18zM355 573l-140 131v8h136l124 -139h-120zM90 573l124 139h136v-8l-140 -131h-120z" />
    <glyph glyph-name="adieresis.ss01" horiz-adv-x="595" 
d="M256 -12q-69 0 -119.5 32t-78.5 91t-28 139q0 81 28 139.5t78.5 90.5t119.5 32q49 0 87.5 -20.5t62.5 -58.5v67h132v-500h-125l-4 70q-25 -39 -64 -60.5t-89 -21.5zM290 109q33 0 58.5 16.5t40.5 46.5t17 68v20q-2 38 -17 67.5t-41 46t-59 16.5q-36 0 -63 -17.5
t-43 -49.5t-16 -73t16 -73t43.5 -50t63.5 -18zM415 593q-27 0 -47.5 21t-20.5 48q0 28 20.5 48.5t47.5 20.5q28 0 48.5 -20.5t20.5 -48.5q0 -27 -20.5 -48t-48.5 -21zM157 593q-28 0 -48.5 20.5t-20.5 48.5q0 29 20.5 49t48.5 20t48 -20t20 -49q0 -28 -20 -48.5t-48 -20.5z
" />
    <glyph glyph-name="agrave.ss01" horiz-adv-x="595" 
d="M256 -12q-69 0 -119.5 32t-78.5 91t-28 139q0 81 28 139.5t78.5 90.5t119.5 32q49 0 87.5 -20.5t62.5 -58.5v67h132v-500h-125l-4 70q-25 -39 -64 -60.5t-89 -21.5zM290 109q33 0 58.5 16.5t40.5 46.5t17 68v20q-2 38 -17 67.5t-41 46t-59 16.5q-36 0 -63 -17.5
t-43 -49.5t-16 -73t16 -73t43.5 -50t63.5 -18zM261 562l-131 139h148l116 -139h-133z" />
    <glyph glyph-name="amacron.ss01" horiz-adv-x="595" 
d="M256 -12q-69 0 -119.5 32t-78.5 91t-28 139q0 81 28 139.5t78.5 90.5t119.5 32q49 0 87.5 -20.5t62.5 -58.5v67h132v-500h-125l-4 70q-25 -39 -64 -60.5t-89 -21.5zM290 109q33 0 58.5 16.5t40.5 46.5t17 68v20q-2 38 -17 67.5t-41 46t-59 16.5q-36 0 -63 -17.5
t-43 -49.5t-16 -73t16 -73t43.5 -50t63.5 -18zM124 561v114h324v-114h-324z" />
    <glyph glyph-name="aogonek.ss01" horiz-adv-x="595" 
d="M256 -12q-69 0 -119.5 32t-78.5 91t-28 139q0 81 28 139.5t78.5 90.5t119.5 32q49 0 87.5 -20.5t62.5 -58.5v67h132v-500h-125l-4 70q-25 -39 -64 -60.5t-89 -21.5zM290 109q33 0 58.5 16.5t40.5 46.5t17 68v20q-2 38 -17 67.5t-41 46t-59 16.5q-36 0 -63 -17.5
t-43 -49.5t-16 -73t16 -73t43.5 -50t63.5 -18zM495 -212q-38 0 -69 12.5t-49 36.5t-18 61q0 32 23 60t54 47l102 -5q-30 -21 -51 -45.5t-21 -49.5q0 -11 7.5 -18t19.5 -7q13 0 22.5 3t14.5 6l39 -83q-15 -9 -33 -13.5t-41 -4.5z" />
    <glyph glyph-name="aring.ss01" horiz-adv-x="595" 
d="M256 -12q-69 0 -119.5 32t-78.5 91t-28 139q0 81 28 139.5t78.5 90.5t119.5 32q49 0 87.5 -20.5t62.5 -58.5v67h132v-500h-125l-4 70q-25 -39 -64 -60.5t-89 -21.5zM290 109q33 0 58.5 16.5t40.5 46.5t17 68v20q-2 38 -17 67.5t-41 46t-59 16.5q-36 0 -63 -17.5
t-43 -49.5t-16 -73t16 -73t43.5 -50t63.5 -18zM286 538q-32 0 -59 15t-43 40t-16 56q0 32 16 57t43 40t59 15t58.5 -15t42.5 -40t16 -57q0 -31 -16 -56t-42.5 -40t-58.5 -15zM286 614q34 0 34 35q0 36 -34 36q-35 0 -35 -36q0 -35 35 -35z" />
    <glyph glyph-name="atilde.ss01" horiz-adv-x="595" 
d="M256 -12q-69 0 -119.5 32t-78.5 91t-28 139q0 81 28 139.5t78.5 90.5t119.5 32q49 0 87.5 -20.5t62.5 -58.5v67h132v-500h-125l-4 70q-25 -39 -64 -60.5t-89 -21.5zM290 109q33 0 58.5 16.5t40.5 46.5t17 68v20q-2 38 -17 67.5t-41 46t-59 16.5q-36 0 -63 -17.5
t-43 -49.5t-16 -73t16 -73t43.5 -50t63.5 -18zM367 549q-33 0 -52.5 11t-30.5 25t-21 25t-25 11q-12 0 -20.5 -7t-14.5 -31h-89q5 41 19.5 68.5t40 41.5t60.5 14t54.5 -11t31.5 -25t22 -25t25 -11t21.5 11t8.5 28h89q-7 -56 -35.5 -90.5t-83.5 -34.5z" />
    <glyph glyph-name="l.ss02" horiz-adv-x="315" 
d="M212 -12q-76 0 -115.5 41t-39.5 117v554h132v-525q0 -31 11 -46.5t33 -15.5q7 0 17 3.5t21 11.5l47 -99q-24 -18 -51.5 -29.5t-54.5 -11.5z" />
    <glyph glyph-name="lacute.ss02" horiz-adv-x="315" 
d="M212 -12q-76 0 -115.5 41t-39.5 117v554h132v-525q0 -31 11 -46.5t33 -15.5q7 0 17 3.5t21 11.5l47 -99q-24 -18 -51.5 -29.5t-54.5 -11.5zM39 750l114 138h148l-129 -138h-133z" />
    <glyph glyph-name="lcaron.ss02" horiz-adv-x="315" 
d="M212 -12q-76 0 -115.5 41t-39.5 117v554h132v-525q0 -31 11 -46.5t33 -15.5q7 0 17 3.5t21 11.5l47 -99q-24 -18 -51.5 -29.5t-54.5 -11.5zM209 542l36 158h118l-53 -158h-101z" />
    <glyph glyph-name="uni013C.ss02" horiz-adv-x="315" 
d="M212 -12q-76 0 -115.5 41t-39.5 117v554h132v-525q0 -31 11 -46.5t33 -15.5q7 0 17 3.5t21 11.5l47 -99q-24 -18 -51.5 -29.5t-54.5 -11.5zM59 -200l46 150h129l-74 -150h-101z" />
    <glyph glyph-name="lslash.ss02" horiz-adv-x="337" 
d="M8 230v106l270 138v-106zM232 -12q-77 0 -116 41t-39 117v554h132v-525q0 -31 11 -46.5t32 -15.5q8 0 17.5 3.5t21.5 11.5l46 -99q-23 -18 -50.5 -29.5t-54.5 -11.5z" />
    <glyph glyph-name="zero.ss02" horiz-adv-x="648" 
d="M324 -12q-85 0 -150 46.5t-102 128t-37 187.5t37 187.5t101.5 128t149.5 46.5t150.5 -46.5t102.5 -128t37 -187.5t-37 -187.5t-102 -128t-150 -46.5zM324 112q45 0 80.5 30.5t55.5 84t20 123.5t-20 124t-55.5 84.5t-81.5 30.5q-45 0 -80 -30.5t-54.5 -84.5t-19.5 -124
t19.5 -123.5t55 -84t80.5 -30.5zM96 156l348 402l106 -19l-344 -397z" />
    <glyph glyph-name="zero.tf" 
d="M316 -12q-85 0 -150 46.5t-102 128t-37 187.5t37 187.5t101.5 128t149.5 46.5t150.5 -46.5t102.5 -128t37 -187.5t-37 -187.5t-102 -128t-150 -46.5zM316 112q45 0 80.5 30.5t55.5 84t20 123.5t-20 124t-55.5 84.5t-81.5 30.5q-45 0 -80 -30.5t-54.5 -84.5t-19.5 -124
t19.5 -123.5t55 -84t80.5 -30.5z" />
    <glyph glyph-name="one.tf" 
d="M139 0v120h424v-120h-424zM287 0v528q-35 -24 -72.5 -37.5t-75.5 -11.5v124q25 -2 53.5 12.5t57.5 38t51 46.5h117v-700h-131z" />
    <glyph glyph-name="two.tf" 
d="M83 0v101q0 29 18 64t50 70t75 65l106 76q22 15 41.5 34t32 41.5t12.5 43.5q0 26 -12.5 47t-36.5 33t-59 12q-30 0 -53.5 -12t-38.5 -32t-21 -43l-141 24q10 50 43 93t86.5 69.5t121.5 26.5q78 0 134 -28t86.5 -76.5t30.5 -112.5q0 -65 -35.5 -115.5t-97.5 -94.5l-95 -69
q-29 -20 -50 -44t-32 -53h319v-120h-484z" />
    <glyph glyph-name="three.tf" 
d="M317 -12q-62 0 -112 18.5t-83.5 53t-46.5 81.5l126 37q7 -12 19 -29.5t33 -29.5t55 -12q50 0 79.5 27.5t29.5 71.5q0 30 -15 53t-48.5 35.5t-87.5 12.5h-42v112h42q70 0 104 24t34 66q0 24 -12 43t-34 30t-51 11q-19 0 -39 -6.5t-36.5 -21t-26.5 -41.5l-124 37
q14 49 48.5 82.5t82.5 51t99 17.5q65 0 117 -24.5t82 -67.5t30 -99q0 -55 -30.5 -93.5t-81.5 -61.5q58 -27 92 -71.5t34 -104.5q0 -63 -33 -108.5t-87 -69.5t-117 -24z" />
    <glyph glyph-name="four.tf" 
d="M126 193l-98 54l307 453l80 -77zM28 138v109l76 8h495v-117h-571zM350 0v625l-14 75h142v-700h-128z" />
    <glyph glyph-name="five.tf" 
d="M318 -12q-48 0 -98.5 16t-91 48t-59.5 79l125 37q22 -32 52.5 -47t63.5 -15q52 0 84.5 31.5t32.5 84.5q0 49 -31.5 82t-83.5 33q-31 0 -57 -14t-40 -33l-123 27l42 383h396v-124h-279l-20 -168q27 15 60 24.5t71 8.5q57 0 104 -27.5t74.5 -75t27.5 -110.5q0 -71 -32 -125
t-88 -84.5t-130 -30.5z" />
    <glyph glyph-name="six.tf" 
d="M325 -12q-71 0 -120.5 25.5t-81 70.5t-46 104.5t-14.5 128.5q0 80 17 151.5t51.5 126.5t88.5 86t130 31q55 0 107.5 -16t94.5 -46l-68 -100q-31 22 -66.5 32t-65.5 10q-77 0 -121 -68t-42 -215l-27 19q23 55 71 88t114 33q67 0 118.5 -31t81 -84.5t29.5 -119.5
q0 -65 -31 -116.5t-87.5 -80.5t-132.5 -29zM325 104q33 0 59 15t41 41t15 60t-15 60.5t-41 42t-59 15.5t-59.5 -15.5t-41.5 -42t-15 -60.5t15 -60t41.5 -41t59.5 -15z" />
    <glyph glyph-name="seven.tf" 
d="M131 0l281 575h-341v125h493v-101l-281 -599h-152z" />
    <glyph glyph-name="eight.tf" 
d="M315 -12q-84 0 -143 24.5t-89.5 68t-30.5 101.5q0 63 31.5 110.5t90.5 73.5q-48 23 -73.5 63.5t-25.5 92.5q0 56 28.5 99t82.5 67t129 24q76 0 130 -24t83 -67t29 -99q0 -52 -26 -92.5t-74 -63.5q59 -26 91 -73.5t32 -110.5q0 -58 -31 -101.5t-90 -68t-144 -24.5z
M315 102q55 0 90 27.5t35 70.5q0 47 -35 76t-90 29q-36 0 -63.5 -13t-43.5 -37t-16 -55q0 -29 16 -51t43.5 -34.5t63.5 -12.5zM315 414q48 0 78.5 26t30.5 66q0 43 -30.5 69.5t-78.5 26.5q-47 0 -77 -26.5t-30 -69.5q0 -40 30 -66t77 -26z" />
    <glyph glyph-name="nine.tf" 
d="M307 711q71 0 120.5 -25.5t81 -70.5t46 -104.5t14.5 -127.5q0 -81 -17 -152.5t-51.5 -126t-88.5 -86t-130 -31.5q-55 0 -107.5 16.5t-94.5 45.5l67 100q32 -21 67.5 -31.5t64.5 -10.5q78 0 122.5 68.5t40.5 214.5l28 -18q-23 -55 -71 -88.5t-115 -33.5q-66 0 -118 31.5
t-81 84.5t-29 120q0 66 31 116.5t87.5 79.5t132.5 29zM307 596q-33 0 -59 -15t-41 -41t-15 -60t15 -61t41 -42t59 -15t59 15t41.5 42t15.5 61t-15.5 60t-41.5 41t-59 15z" />
    <glyph glyph-name="zero.tf.ss02" 
d="M93 156l347 402l107 -19l-344 -397zM315 -12q-84 0 -149.5 46.5t-102 128t-36.5 187.5t36.5 187.5t101.5 128t149 46.5q86 0 151 -46.5t102.5 -128t37.5 -187.5t-37 -187.5t-102.5 -128t-150.5 -46.5zM316 112q45 0 80 30.5t55 84t20 123.5t-20 124t-55.5 84.5
t-81.5 30.5q-45 0 -79.5 -30.5t-54.5 -84.5t-20 -124t20 -123.5t55 -84t81 -30.5z" />
    <glyph glyph-name="zero.dnom" horiz-adv-x="406" 
d="M204 -6q-53 0 -93 27.5t-63 76.5t-23 113q0 65 22.5 113.5t63 76t92.5 27.5q53 0 92.5 -27.5t62.5 -76t23 -113.5q0 -64 -22.5 -113t-62.5 -76.5t-92 -27.5zM203 84q36 0 59 36t23 91q0 57 -23 93t-60 36q-33 0 -54.5 -36t-21.5 -93q0 -56 22 -91.5t55 -35.5z" />
    <glyph glyph-name="one.dnom" horiz-adv-x="280" 
d="M119 0v367l10 53h84v-420h-94zM33 274v90q23 -2 48.5 15.5t47.5 41.5l63 -61q-39 -44 -78 -67t-81 -19z" />
    <glyph glyph-name="two.dnom" horiz-adv-x="367" 
d="M130 56l-97 15q0 16 12 37.5t33.5 43.5t48.5 41l51 35q18 12 35 29t17 35q0 20 -14 32.5t-42 12.5q-21 0 -35.5 -13.5t-19.5 -31.5l-102 17q6 32 26.5 58.5t54 43.5t76.5 17q73 0 115 -37.5t42 -97.5q0 -43 -23.5 -73t-61.5 -56l-51 -35q-14 -10 -28 -23.5t-24.5 -27
t-12.5 -22.5zM33 0v71l73 16h230v-87h-303z" />
    <glyph glyph-name="three.dnom" horiz-adv-x="355" 
d="M183 -6q-61 0 -103.5 27.5t-52.5 78.5l94 21q6 -13 17.5 -27.5t38.5 -14.5q23 0 37 13t14 35q0 12 -5.5 23.5t-21 18t-45.5 6.5h-33v64h29q46 0 86 -15.5t65 -43.5t25 -66q0 -39 -21 -65.5t-54 -40.5t-70 -14zM123 196v59h33q36 0 51 12.5t15 33.5q0 18 -12.5 30
t-33.5 12q-16 0 -31 -9t-22 -33l-92 21q6 35 28.5 58.5t54 35.5t65.5 12q39 0 71.5 -15t51.5 -40.5t19 -60.5q0 -40 -25 -65.5t-64 -38t-80 -12.5h-29z" />
    <glyph glyph-name="four.dnom" horiz-adv-x="395" 
d="M89 115l-71 37l183 268l58 -55zM18 72v80l54 4h302v-84h-356zM214 0v368l-12 52h106v-420h-94z" />
    <glyph glyph-name="five.dnom" horiz-adv-x="367" 
d="M186 -7q-31 0 -63.5 11t-57 32t-34.5 50l94 22q9 -15 23.5 -22.5t31.5 -7.5q25 0 41 15.5t16 41.5q0 24 -15.5 40.5t-41.5 16.5q-15 0 -27.5 -6.5t-20.5 -19.5l-89 20l28 234h245v-90h-228l-17 87h98l-38 -242l-46 11q6 13 23 32.5t45.5 34t67.5 13.5q49 -1 84 -36
t35 -89q0 -66 -43 -107t-111 -41z" />
    <glyph glyph-name="six.dnom" horiz-adv-x="362" 
d="M185 -7q-55 0 -90.5 25.5t-52 69.5t-16.5 98q0 45 9.5 88.5t30 78t54.5 54.5t83 20q34 0 66.5 -9.5t57.5 -27.5l-47 -73q-18 13 -39.5 18.5t-36.5 5.5q-39 0 -63 -35.5t-22 -113.5l-21 11q14 31 42 50t65 19q40 0 70.5 -19.5t48 -51.5t17.5 -72q0 -59 -42 -97.5
t-114 -38.5zM186 76q24 0 40.5 16.5t16.5 41.5t-16.5 42t-40.5 17t-40.5 -17t-16.5 -42t16.5 -41.5t40.5 -16.5z" />
    <glyph glyph-name="seven.dnom" horiz-adv-x="349" 
d="M66 0l153 334l109 15l-152 -349h-110zM23 329v91h305v-71l-106 -20h-199z" />
    <glyph glyph-name="eight.dnom" horiz-adv-x="384" 
d="M192 -7q-80 0 -121.5 32t-41.5 84q0 57 41 92.5t121 35.5t121.5 -35.5t41.5 -92.5q0 -52 -41.5 -84t-120.5 -32zM191 74q27 0 44 13.5t17 35.5q0 24 -17 39.5t-43 15.5q-27 0 -44 -15.5t-17 -39.5q0 -22 17 -35.5t43 -13.5zM191 253q24 0 39 14t15 35q0 20 -15 33.5
t-39 13.5q-23 0 -38 -13.5t-15 -33.5q0 -21 15 -35t38 -14zM191 202q-72 0 -110.5 31t-38.5 80q0 50 38.5 82t111.5 32q72 0 110.5 -32t38.5 -82q0 -49 -39 -80t-111 -31z" />
    <glyph glyph-name="nine.dnom" horiz-adv-x="362" 
d="M159 -8q-34 0 -66.5 9.5t-57.5 27.5l47 73q19 -12 40.5 -17.5t35.5 -5.5q38 0 62 34t23 115l20 -11q-13 -30 -40 -50t-66 -20q-40 0 -70.5 19.5t-48 52.5t-17.5 72q0 58 42 97t114 39q55 0 90 -26t52 -69.5t17 -98.5q0 -45 -9.5 -87.5t-30 -77t-54.5 -55.5t-83 -21z
M176 226q24 0 40.5 18t16.5 42q0 25 -16.5 41.5t-40.5 16.5t-40.5 -16.5t-16.5 -41.5t16.5 -42.5t40.5 -17.5z" />
    <glyph glyph-name="zero.numr" horiz-adv-x="406" 
d="M204 273q-53 0 -93 27.5t-63 76.5t-23 113q0 65 22.5 113.5t63 76t92.5 27.5q53 0 92.5 -27.5t62.5 -76t23 -113.5q0 -64 -22.5 -113t-62.5 -76.5t-92 -27.5zM203 363q36 0 59 36t23 91q0 57 -23 93t-60 36q-33 0 -54.5 -36t-21.5 -93q0 -56 22 -91.5t55 -35.5z" />
    <glyph glyph-name="one.numr" horiz-adv-x="280" 
d="M119 280v367l10 53h84v-420h-94zM33 554v90q23 -2 48.5 15.5t47.5 41.5l63 -61q-39 -44 -78 -67t-81 -19z" />
    <glyph glyph-name="two.numr" horiz-adv-x="367" 
d="M130 336l-97 15q0 16 12 37.5t33.5 43.5t48.5 41l51 35q18 12 35 29t17 35q0 20 -14 32.5t-42 12.5q-21 0 -35.5 -13.5t-19.5 -31.5l-102 17q6 32 26.5 58.5t54 43.5t76.5 17q73 0 115 -37.5t42 -97.5q0 -43 -23.5 -73t-61.5 -56l-51 -35q-14 -10 -28 -23.5t-24.5 -27
t-12.5 -22.5zM33 280v71l73 16h230v-87h-303z" />
    <glyph glyph-name="three.numr" horiz-adv-x="355" 
d="M183 273q-61 0 -103.5 27.5t-52.5 78.5l94 21q6 -13 17.5 -27.5t38.5 -14.5q23 0 37 13t14 35q0 12 -5.5 23.5t-21 18t-45.5 6.5h-33v64h29q46 0 86 -15.5t65 -43.5t25 -66q0 -39 -21 -65.5t-54 -40.5t-70 -14zM123 475v59h33q36 0 51 12.5t15 33.5q0 18 -12.5 30
t-33.5 12q-16 0 -31 -9t-22 -33l-92 21q6 35 28.5 58.5t54 35.5t65.5 12q39 0 71.5 -15t51.5 -40.5t19 -60.5q0 -40 -25 -65.5t-64 -38t-80 -12.5h-29z" />
    <glyph glyph-name="four.numr" horiz-adv-x="395" 
d="M89 395l-71 37l183 268l58 -55zM18 352v80l54 4h302v-84h-356zM214 280v368l-12 52h106v-420h-94z" />
    <glyph glyph-name="five.numr" horiz-adv-x="367" 
d="M186 273q-31 0 -63.5 11t-57 32t-34.5 50l94 22q9 -15 23.5 -22.5t31.5 -7.5q25 0 41 15.5t16 41.5q0 24 -15.5 40.5t-41.5 16.5q-15 0 -27.5 -6.5t-20.5 -19.5l-89 20l28 234h245v-90h-228l-17 87h98l-38 -242l-46 11q6 13 23 32.5t45.5 34t67.5 13.5q49 -1 84 -36
t35 -89q0 -66 -43 -107t-111 -41z" />
    <glyph glyph-name="six.numr" horiz-adv-x="362" 
d="M185 273q-55 0 -90.5 25.5t-52 69.5t-16.5 98q0 45 9.5 88.5t30 78t54.5 54.5t83 20q34 0 66.5 -9.5t57.5 -27.5l-47 -73q-18 13 -39.5 18.5t-36.5 5.5q-39 0 -63 -35.5t-22 -113.5l-21 11q14 31 42 50t65 19q40 0 70.5 -19.5t48 -51.5t17.5 -72q0 -59 -42 -97.5
t-114 -38.5zM186 356q24 0 40.5 16.5t16.5 41.5t-16.5 42t-40.5 17t-40.5 -17t-16.5 -42t16.5 -41.5t40.5 -16.5z" />
    <glyph glyph-name="seven.numr" horiz-adv-x="349" 
d="M66 280l153 334l109 15l-152 -349h-110zM23 609v91h305v-71l-106 -20h-199z" />
    <glyph glyph-name="eight.numr" horiz-adv-x="384" 
d="M192 273q-80 0 -121.5 32t-41.5 84q0 57 41 92.5t121 35.5t121.5 -35.5t41.5 -92.5q0 -52 -41.5 -84t-120.5 -32zM191 354q27 0 44 13.5t17 35.5q0 24 -17 39.5t-43 15.5q-27 0 -44 -15.5t-17 -39.5q0 -22 17 -35.5t43 -13.5zM191 533q24 0 39 14t15 35q0 20 -15 33.5
t-39 13.5q-23 0 -38 -13.5t-15 -33.5q0 -21 15 -35t38 -14zM191 482q-72 0 -110.5 31t-38.5 80q0 50 38.5 82t111.5 32q72 0 110.5 -32t38.5 -82q0 -49 -39 -80t-111 -31z" />
    <glyph glyph-name="nine.numr" horiz-adv-x="362" 
d="M159 272q-34 0 -66.5 9.5t-57.5 27.5l47 73q19 -12 40.5 -17.5t35.5 -5.5q38 0 62 34t23 115l20 -11q-13 -30 -40 -50t-66 -20q-40 0 -70.5 19.5t-48 52.5t-17.5 72q0 58 42 97t114 39q55 0 90 -26t52 -69.5t17 -98.5q0 -45 -9.5 -87.5t-30 -77t-54.5 -55.5t-83 -21z
M176 506q24 0 40.5 18t16.5 42q0 25 -16.5 41.5t-40.5 16.5t-40.5 -16.5t-16.5 -41.5t16.5 -42.5t40.5 -17.5z" />
    <glyph glyph-name="periodcentered.loclCAT" horiz-adv-x="136" 
d="M68 241q-33 0 -56.5 24t-23.5 57q0 32 23.5 56t56.5 24t56.5 -24t23.5 -56q0 -33 -23.5 -57t-56.5 -24z" />
    <glyph glyph-name="periodcentered.loclCAT.case" horiz-adv-x="0" 
d="M-80 293q-33 0 -56.5 24t-23.5 57q0 32 23.5 56t56.5 24t56.5 -24t23.5 -56q0 -33 -23.5 -57t-56.5 -24z" />
    <glyph glyph-name="uni030C.alt" horiz-adv-x="0" 
d="M18 542l36 158h118l-53 -158h-101z" />
    <glyph glyph-name="uni0328.alt" horiz-adv-x="0" 
d="M171 -212q-43 0 -78 11.5t-55 33.5t-20 55q0 34 19 62t52 52t74 48l24 -1q-28 -26 -42.5 -48.5t-19.5 -42t-5 -38.5t11 -29.5t30 -10.5q15 0 27.5 2t22.5 6l39 -82q-17 -10 -36.5 -14t-42.5 -4z" />
    <glyph glyph-name="uni0304.narrow" horiz-adv-x="0" 
d="M10 561v114h280v-114h-280z" />
    <glyph glyph-name="dollar.BRACKET.varAlt01" horiz-adv-x="554" 
d="M284 24q-64 0 -116 20t-85.5 54t-42.5 73l122 36q11 -30 40.5 -51.5t74.5 -22.5q47 -1 76.5 20t29.5 56q0 28 -23.5 48.5t-64.5 30.5l-82 20q-46 13 -81 37t-54 59.5t-19 82.5q0 89 58.5 139t166.5 50q60 0 105.5 -17t76.5 -49.5t47 -77.5l-122 -37q-10 29 -38.5 50.5
t-72.5 21.5q-43 0 -68 -20.5t-25 -56.5q0 -29 19.5 -46.5t53.5 -25.5l83 -21q81 -20 125.5 -71.5t44.5 -114.5q0 -57 -27 -99t-78 -65t-124 -23zM231 -103v174h110v-174h-110zM231 606v174h110v-174h-110z" />
    </font>
</defs>
</svg>
